<?xml version="1.0" standalone="no"?>
<!DOCTYPE svg PUBLIC "-//W3C//DTD SVG 1.1//EN" "http://www.w3.org/Graphics/SVG/1.1/DTD/svg11.dtd" >
<svg xmlns="http://www.w3.org/2000/svg">
<metadata>
This is a custom SVG webfont generated by Font Squirrel.
Copyright   : Copyright c 2011 by Kimberly Geswein All rights reserved
Designer    : Kimberly Geswein
Foundry     : Kimberly Geswein
</metadata>
<defs>
<font id="KGMercyintheMorningRegular" horiz-adv-x="1404" >
<font-face units-per-em="2048" ascent="1638" descent="-410" />
<missing-glyph horiz-adv-x="1000" />
<glyph unicode=" "  horiz-adv-x="1000" />
<glyph unicode="&#x09;" horiz-adv-x="1000" />
<glyph unicode="&#xa0;" horiz-adv-x="1000" />
<glyph unicode="!" horiz-adv-x="1480" d="M130 1880q0 40 24 58t62 14q68 -60 149 -91t170 -45t184 -15t190 2t188 6t179 -5q36 4 67 -1t50 -22t21 -48t-22 -79q-46 -56 -85 -109t-78 -119t-81 -153t-91 -211t-110 -295t-139 -403l-112 -26q-104 226 -178 391t-126 293t-88 228t-64 197t-53 199t-57 234zM280 1774 q0 -8 6 -41t16 -79t23 -97t29 -92t31 -67t31 -20q116 38 268 20t348 -68q46 8 77 58t59 112t60 119t80 79q-178 0 -311 -1t-234 0t-173 4t-128 12t-99 23t-83 38zM444 1248q0 -46 11 -99t29 -106t40 -104t44 -93l344 132q14 6 27 35t22 66t16 73t11 54q-22 24 -84 44 t-142 29t-165 3t-153 -34zM612 38q14 50 36 82t48 43t53 -4t53 -59q4 -42 -17 -74t-52 -45t-65 -1t-56 58zM644 742q-4 -4 1 -22t16 -44t30 -57t45 -61q8 0 26 36t38 81t39 88t29 59q-18 10 -53 3t-72 -21t-66 -32t-33 -30z" />
<glyph unicode="&#x22;" horiz-adv-x="564" d="M76 858q32 54 50 102t25 98t5 105t-8 123q6 16 27 23t45 7t45 -8t25 -22q2 -18 2 -61t-3 -96t-11 -110t-24 -104t-42 -77t-64 -30q-26 0 -54 10t-18 40zM300 848q32 54 50 102t25 98t5 105t-8 123q6 16 27 23t45 7t45 -8t25 -22q2 -18 2 -61t-3 -96t-11 -110t-24 -104 t-42 -77t-64 -30q-26 0 -54 10t-18 40z" />
<glyph unicode="#" horiz-adv-x="2640" d="M72 1142q0 94 96 94q20 -18 56 -24t76 -6t81 3t71 3q42 56 48 125t-1 147t-18 161t-5 169q0 24 16 38t37 18t40 -3t27 -25q14 -98 18 -171t5 -142t5 -142t20 -171l856 68v496q44 0 72 -6t43 -22t21 -46t8 -78q0 -28 -1 -75t-3 -98t-4 -98t-2 -73h986l-32 -96l-936 -28 v-356q62 2 152 6t180 7t165 1t103 -14q20 -6 20 -24t-16 -37t-45 -33t-67 -10l-506 -16q-10 -176 -9 -291t6 -190t10 -120t3 -83t-17 -80t-47 -108q-24 -16 -47 -13t-37 18t-16 41t16 58q18 30 25 57t7 63t-5 86t-11 126t-11 183t-5 257q-206 -10 -350 -15t-239 -8t-148 -6 t-80 -10t-33 -21t-6 -36q6 -190 1 -316t-4 -210t17 -138t66 -100q0 -8 -5 -21t-14 -25t-20 -20t-21 -8q-64 0 -95 67t-43 169t-12 219v219q0 102 -6 169t-32 67l-364 -8q0 38 7 76t49 44q16 4 70 8t112 10q68 6 150 14v274q-134 0 -217 8t-130 18t-63 20t-18 14zM644 808 h856v334q-26 12 -94 13t-159 -5t-190 -17t-186 -20t-150 -15t-77 -4v-286z" />
<glyph unicode="$" horiz-adv-x="1048" d="M102 1480q0 54 35 89t80 60t88 41t59 30q2 12 2 51t-1 83t-2 83t-1 51q12 26 35 42t46 16t40 -18t17 -60l-4 -244l432 30q36 -8 51 -40t9 -62t-31 -48t-69 2q-104 14 -197 5t-199 -43l14 -456q32 -68 87 -131t116 -126t119 -127t98 -135t55 -151t-13 -174 q-22 -70 -67 -119t-91 -82t-84 -52t-46 -31q0 -4 2 -41t4 -80t4 -78t2 -37q-40 -30 -64 -30t-36 19t-16 50t-5 65t-2 65t-5 47q-142 20 -228 86t-133 160t-62 209t-13 235q0 2 1 29t1 66t2 84t2 84t1 65t1 30q18 40 35 57t32 17t25 -15t16 -35q12 -86 12 -186t-1 -201 t6 -195t34 -165t81 -112t148 -37q-26 106 -43 213t-32 214t-31 215t-40 216q-36 60 -84 120t-90 122t-72 126t-30 134zM275 1388q9 -52 32 -104t45 -78v314q-56 -2 -71 -41t-6 -91zM544 800l106 -660q46 0 81 24t60 62t39 84t20 92q-2 42 -35 106t-80 126t-100 109t-91 57z " />
<glyph unicode="%" horiz-adv-x="1672" d="M44 1558q0 38 21 75t52 67t69 48t74 18h25q17 0 33 -4t28 -12t12 -24q-28 -6 -61 -28t-60 -52t-40 -63t-2 -62t54 -47t129 -18q64 12 83 56t16 98t-17 107t-16 83q56 0 91 -17t54 -47t25 -72t6 -92q-4 -80 -47 -134t-104 -81t-133 -28t-134 24t-107 76t-51 129zM390 80 q-2 46 16 86q38 74 100 190t137 257t162 297t176 311t177 302t168 267q52 34 85 28t33 -70l-944 -1700q-28 -62 -53 -66t-40 24t-17 74zM980 106q0 98 40 174t102 129t139 80t151 27q76 0 132 -48t68 -144q6 -84 -39 -141t-116 -88t-156 -36t-161 17q-16 0 -26 -10t-20 -21 t-21 -21t-31 -10q-38 0 -50 25t-12 67zM1180 206q16 0 46 -1t65 2t71 10t62 22t38 42t0 67q-24 26 -65 34t-84 -8t-80 -57t-53 -111z" />
<glyph unicode="&#x26;" horiz-adv-x="1612" d="M120 1463q14 101 65 182t139 133t216 58q78 8 133 -10t92 -54t56 -86t23 -104q0 -80 -23 -153t-58 -140t-77 -125t-79 -109t-65 -94t-34 -77q38 -34 86 -92t100 -116t103 -106t95 -62q22 4 53 37t62 82t60 107t47 112t22 98t-14 66q0 2 11 18t26 34t29 33t22 17 q58 -70 66 -151t-13 -162t-63 -155t-83 -131t-71 -92t-30 -37q32 -34 85 -73t115 -80t126 -83t116 -81t85 -74t33 -61q0 -38 -35 -66t-69 -24q-42 32 -113 93t-150 124t-155 119t-126 80h-20q-56 -52 -106 -101t-103 -90t-115 -68t-140 -33t-136 25t-97 83t-58 117t-19 129 q0 150 47 294t131 270v20q-76 66 -124 160t-65 196t-3 203zM265 1414q-5 -70 10 -140t48 -136t79 -114q-2 6 32 58t77 126t84 158t54 155t-14 116t-119 41q-82 -6 -136 -44t-82 -94t-33 -126zM286 410q-14 -88 13 -165t117 -115q66 0 114 23t88 60t76 82t78 89 q-56 38 -100 77t-82 82t-73 91t-73 104q-54 -62 -99 -151t-59 -177z" />
<glyph unicode="'" horiz-adv-x="334" d="M76 858q32 54 50 102t25 98t5 105t-8 123q6 16 27 23t45 7t45 -8t25 -22q2 -18 2 -61t-3 -96t-11 -110t-24 -104t-42 -77t-64 -30q-26 0 -54 10t-18 40z" />
<glyph unicode="(" horiz-adv-x="700" d="M52 940q0 56 4 154t18 211t43 231t78 213t122 155t177 60q22 0 51 -5t56 -17t45 -31t18 -47q-102 -6 -189 -50t-152 -151t-102 -290t-37 -465q0 -150 41 -293t108 -272t149 -240t162 -195q8 -16 3 -34t-20 -29t-37 -10t-46 23q-110 88 -201 194t-155 238t-100 293 t-36 357z" />
<glyph unicode=")" horiz-adv-x="636" d="M-32 1836q0 28 18 47t45 31t56 17t51 5q104 0 177 -60t122 -155t78 -213t43 -231t18 -211t4 -154q0 -196 -36 -357t-100 -293t-155 -238t-201 -194q-24 -22 -46 -23t-37 10t-21 29t4 34q80 84 162 195t149 240t108 272t41 293q0 282 -38 465t-102 290t-151 151t-189 50z " />
<glyph unicode="*" horiz-adv-x="1316" d="M166 878q0 28 21 45t55 27t74 15t77 6t67 1t42 2q-22 46 -54 87t-61 76t-50 66t-22 57t22 48t83 40l200 -276l92 336q18 4 43 11t48 3t38 -23t13 -65t-27 -124t-81 -198q174 54 267 58t130 -18t32 -62t-25 -74l-334 -28q24 -34 67 -57t91 -43t95 -39t76 -47t33 -67 t-30 -97q-64 0 -117 26t-99 57t-87 57t-79 26q0 -24 23 -66t52 -88t55 -91t32 -71q0 -14 -11 -27t-26 -25t-33 -22t-30 -16q-30 18 -59 64t-56 97t-52 99t-49 70q-10 -6 -31 -48l-45 -90q-24 -48 -45 -87t-31 -39q-60 -4 -79 17t-14 59t26 85t42 95t34 91t1 71h-230 q-34 0 -54 33t-20 63z" />
<glyph unicode="+" horiz-adv-x="1292" d="M174 853q-6 35 17 54t69 26t100 9t111 5t103 13q-14 54 -26 101t-20 93t-12 94t-4 104q48 56 80 62t52 -22t32 -79t20 -108t18 -111t26 -86q52 -20 106 -16t104 16t94 24t80 7t60 -35t32 -100l-452 -88l68 -520q-60 -36 -93 -35t-49 29t-23 80t-15 119t-24 145t-52 158 l-348 -32q-48 58 -54 93z" />
<glyph unicode="," horiz-adv-x="358" d="M64 -182q32 54 50 102t25 98t5 105t-8 123q6 16 27 23t45 7t45 -8t25 -22q2 -18 2 -61t-3 -96t-11 -110t-24 -104t-42 -77t-64 -30q-26 0 -54 10t-18 40z" />
<glyph unicode="-" horiz-adv-x="1228" d="M136 640q-4 38 18 72t74 44l840 12q36 -16 57 -45t26 -61t-5 -63t-33 -50t-58 -20t-81 25l-726 -14q-50 2 -79 32t-33 68z" />
<glyph unicode="." horiz-adv-x="284" d="M47 140q1 36 19 64t52 40t88 -6q36 -24 50 -61t8 -73t-30 -66t-66 -38q-40 -4 -68 17t-41 54t-12 69z" />
<glyph unicode="/" horiz-adv-x="960" d="M22 46q24 48 69 145t101 224t121 273t128 293t120 285t100 247t66 179t19 82q24 54 58 65t61 -4t39 -49t-4 -70q-80 -202 -139 -351t-107 -271t-91 -231t-95 -230t-119 -267t-159 -342q-4 -16 -30 -24t-56 -7t-55 14t-27 39z" />
<glyph unicode="0" horiz-adv-x="1276" d="M55 969q9 175 56 342t131 297q-2 8 -9 28t-16 43t-21 44t-24 31q30 26 66 40t73 18t75 4h72q152 0 284 -71t233 -194t164 -290t77 -361q14 -184 -18 -344t-105 -280t-184 -189t-257 -69q-162 4 -279 88t-191 217t-105 302t-22 344zM196 909q0 -145 29 -284t88 -247 t146 -173t205 -61q120 6 204 66t134 156t70 219t13 253t-40 260t-88 240t-129 191t-164 115q-118 12 -205 -48t-146 -164t-88 -241t-29 -282z" />
<glyph unicode="1" horiz-adv-x="500" d="M10 1756q30 56 56 69t70 -41l320 -1776q-8 -24 -26 -36t-38 -10t-38 14t-26 36q-44 140 -75 330t-63 416t-74 479t-106 519z" />
<glyph unicode="2" horiz-adv-x="1358" d="M77 1302q-7 26 5 62q40 186 120 292t174 143t191 11t174 -104t120 -205t29 -289q-20 -240 -96 -487t-246 -511h12q50 -2 141 7t188 23t182 26t121 16q4 2 23 13t23 11q38 0 55 -22t13 -51t-27 -56t-65 -39l-1000 -142q-20 4 -30 14t-15 23t-5 28v27q0 32 34 62t78 58 t87 54t63 50q28 34 63 103t71 156t69 185t60 189t43 169t16 126q0 144 -36 239t-92 142t-123 46t-131 -47t-115 -135t-73 -221q-16 -18 -38 -19t-39 13t-24 40z" />
<glyph unicode="3" horiz-adv-x="1220" d="M39 1654q-13 26 1 68q50 54 122 81t153 30t161 -17t146 -63t109 -108t49 -149q-6 -54 -42 -114t-84 -117t-100 -106t-88 -81q140 -72 274 -167t234 -202t152 -221t28 -224q-20 -88 -75 -144t-132 -87t-171 -40t-192 -3t-195 24t-181 40q-32 30 -42 57t-2 47t30 33t56 13 q118 -50 251 -72t243 -10t180 61t64 141q-6 84 -48 161t-107 145t-146 126t-166 105t-166 81t-145 56q-36 6 -49 30t-9 52t25 52t55 30q18 -10 52 8t74 52t82 77t75 86t55 78t22 53q-6 72 -54 119t-113 65t-132 3t-109 -65q-22 -20 -53 -25t-55 5t-37 36z" />
<glyph unicode="4" d="M38 1050q0 34 21 97t54 137t73 151t76 140t63 103t35 40q12 0 33 -5t42 -14t37 -22t20 -31q-20 -32 -50 -84t-62 -114t-63 -126t-56 -117t-40 -89t-15 -42q198 -10 413 -26t419 -16q0 76 -7 178t-17 208t-22 204t-24 168q14 30 36 54t44 32t40 -6t24 -58l72 -784 q0 -2 27 -2h60h62h35q42 -46 5 -92t-165 -84q2 -114 14 -251t25 -259t22 -212t7 -112q-70 -40 -103 -22t-45 77t-12 152t-4 203t-18 228t-54 230q-74 12 -176 17t-213 7t-221 1t-200 -1q-30 0 -64 8t-62 25t-47 43t-19 66z" />
<glyph unicode="5" horiz-adv-x="1500" d="M46 1678q0 28 8 48t42 36q152 26 309 25t315 -6t312 0t300 45q30 12 52 8t36 -17t17 -30t-9 -31q-18 -34 -86 -55t-162 -31t-201 -14t-204 -5t-172 -2t-103 -7q-4 -34 -2 -102t8 -143t17 -140t25 -91q98 62 203 72t204 -20t186 -97t152 -159t103 -204t36 -234 q-2 -156 -58 -270t-144 -185t-193 -97t-207 -6t-186 88t-128 186q-12 32 -6 54t23 33t39 9t40 -16q30 -76 90 -125t132 -68t149 -6t139 59t102 126t40 198q0 96 -25 197t-79 184t-136 136t-196 53q-58 0 -106 -23t-89 -51t-78 -51t-73 -23t-66 14t-34 60q12 80 3 155 t-26 147t-38 145t-35 149q-88 0 -137 9t-72 22t-27 27t-4 24z" />
<glyph unicode="6" horiz-adv-x="1690" d="M46 872q2 146 64 298t162 283t226 231t255 144t249 19t210 -141q14 -28 3 -47t-33 -28t-49 -9t-41 12q-92 64 -193 62t-199 -51t-187 -137t-156 -196t-107 -227t-38 -233q0 -122 56 -225t146 -181t201 -126t219 -58q-14 104 36 196t134 158t186 100t194 25t158 -69 t78 -182q12 -124 -27 -206t-109 -132t-164 -72t-193 -25t-195 9t-170 32q-144 40 -274 106t-228 161t-156 221t-58 288zM1024 238q46 -22 118 -17t141 33t120 75t53 111q0 24 -9 50t-25 48t-39 38t-49 20q-68 4 -128 -27t-104 -83t-66 -118t-12 -130z" />
<glyph unicode="7" horiz-adv-x="1120" d="M72 1696q0 32 64 51t188 31t306 22t418 26q22 0 33 -25t15 -57t3 -59t-1 -31q0 -22 -19 -102t-50 -196t-72 -258t-85 -288t-88 -284t-82 -247t-66 -178t-40 -77q-8 -4 -20 -8t-28 2t-35 23t-37 55l476 1576l-816 -84q-38 0 -51 33t-13 75z" />
<glyph unicode="8" horiz-adv-x="1048" d="M46 1510q-2 90 32 155t90 105t126 57t142 11t138 -33t114 -75q18 -16 21 -38t-5 -40t-27 -28t-43 2q-26 14 -65 30t-83 26t-90 11t-86 -17t-69 -58t-39 -110q0 -30 21 -95t52 -130t68 -112t73 -39l512 566q20 6 40 4t31 -21t7 -60t-32 -111q-16 -22 -51 -65t-80 -97 t-94 -113t-92 -113t-75 -97t-42 -65q20 -26 58 -71t82 -101t89 -120t84 -126t65 -119t32 -99q0 -88 -32 -150t-85 -101t-121 -56t-140 -17q-114 4 -199 53t-140 126t-78 174t-16 198t44 199t107 178q0 2 -18 34t-45 82t-59 113t-59 127t-45 123t-18 103zM290 448 q12 -76 48 -135t85 -100t105 -62t107 -17t92 32t61 86q0 20 -22 67t-57 107t-77 124t-81 117t-70 87t-43 34q-38 -2 -68 -42t-50 -95t-28 -111t-2 -92z" />
<glyph unicode="9" horiz-adv-x="1428" d="M54 1406q18 114 82 195t155 131t202 71t224 18t220 -30t191 -71q36 38 74 32t71 -37t57 -78t30 -92t-8 -77t-58 -32q-20 -22 -29 -87t-10 -159t4 -210t13 -236t18 -236t18 -215t14 -170t6 -99q0 -30 -20 -42t-47 -7t-55 24t-46 51q-22 96 -30 210t-13 232t-12 232 t-25 212q-84 -92 -196 -128t-230 -28t-231 58t-199 133t-134 194t-36 241zM220 1338q0 -96 45 -172t116 -128t159 -79t174 -27q64 0 117 32t96 85t75 119t53 135t33 135t16 116q-66 40 -153 67t-180 35t-185 -4t-168 -50t-129 -103t-69 -161z" />
<glyph unicode=":" horiz-adv-x="380" d="M100 732q6 40 33 61t60 21t61 -20t38 -62q4 -40 -26 -62t-68 -22t-69 20t-29 64zM104 452q6 40 33 61t60 21t61 -20t38 -62q4 -40 -26 -62t-68 -22t-69 20t-29 64z" />
<glyph unicode=";" horiz-adv-x="356" d="M64 -182q32 54 50 102t25 98t5 105t-8 123q6 16 27 23t45 7t45 -8t25 -22q2 -18 2 -61t-3 -96t-11 -110t-24 -104t-42 -77t-64 -30q-26 0 -54 10t-18 40zM96 600q6 40 33 61t60 21t61 -20t38 -62q4 -40 -26 -62t-68 -22t-69 20t-29 64z" />
<glyph unicode="&#x3c;" horiz-adv-x="1296" d="M174 675q10 67 74 131q96 92 158 148t103 98t72 78t67 89t86 132t130 205q28 2 55 -7t35 -39t-10 -89t-81 -159t-179 -248t-304 -358q54 -86 152 -162t215 -130t242 -80t235 -12q32 -10 36 -37t-13 -58t-51 -58t-76 -39q-120 0 -245 45t-246 114t-231 150t-198 155 q-36 64 -26 131z" />
<glyph unicode="=" horiz-adv-x="1048" d="M62 722q4 22 38 40q210 -6 358 -1t247 13t155 16t84 9t35 -11t5 -42q6 -58 -17 -78t-49 -18q-94 4 -195 0t-203 -11t-202 -13t-190 -6q-12 6 -30 22t-29 37t-7 43zM78 449q4 23 38 41q210 -6 358 -2t246 13t155 16t85 8t34 -11t6 -42q6 -58 -18 -78t-50 -16 q-92 2 -193 -2t-203 -11t-203 -13t-191 -6q-12 6 -29 22t-28 37t-7 44z" />
<glyph unicode="&#x3e;" horiz-adv-x="1364" d="M76 263q4 27 36 37q110 -14 235 12t242 80t215 130t152 162q-188 210 -304 358t-179 249t-81 159t-10 88t35 38t55 8q80 -126 130 -205t86 -132t67 -89t72 -78t102 -98t159 -148q64 -64 74 -131t-26 -131q-88 -74 -198 -155t-231 -150t-246 -114t-245 -45q-42 12 -76 39 t-51 58t-13 58z" />
<glyph unicode="?" horiz-adv-x="928" d="M22 1676q80 96 187 128t215 15t205 -78t158 -152t73 -206t-50 -241q-34 -56 -99 -113t-124 -110t-97 -102t-18 -89q24 -80 42 -122t32 -69t21 -49t7 -62q0 -32 -30 -39t-58 -7q-20 0 -40 29t-40 72t-38 94t-31 95t-21 75t-8 35q0 64 29 114t71 91t93 79t93 80t71 94 t29 120q0 78 -30 136t-79 97t-115 59t-138 20q-34 0 -63 -12t-58 -27t-57 -27t-58 -12q-38 0 -56 26t-18 58zM474 84q0 40 22 63t62 23q42 0 77 -20t35 -66t-35 -66t-77 -20q-84 0 -84 86z" />
<glyph unicode="@" horiz-adv-x="2100" d="M80 656q-18 322 55 544t205 355t308 183t363 30t369 -104t329 -219t241 -316t104 -395q2 -66 -9 -124t-41 -104t-79 -80t-119 -48q-90 0 -158 52t-124 118q-18 -104 -81 -169t-148 -93t-179 -19t-173 53t-131 122t-52 192q-10 128 29 219t109 145t161 71t184 -4t180 -79 t149 -152q18 -28 37 -74t44 -92t57 -80t78 -36q72 28 99 89t18 143t-51 177t-108 190t-154 183t-189 156t-212 109t-223 41q-200 0 -343 -69t-235 -186t-135 -272t-43 -329q0 -162 70 -280t176 -202t231 -138t236 -88t191 -53t96 -31q-16 -36 -71 -53t-135 -14t-178 26 t-199 64t-197 102t-172 141t-125 180t-55 218zM926 636q0 -48 18 -86t50 -65t73 -42t89 -15q54 0 96 28t72 70t45 94t15 100q0 30 -22 62t-55 59t-71 45t-68 18q-56 0 -101 -22t-76 -58t-48 -85t-17 -103z" />
<glyph unicode="A" d="M14 -12q0 30 6 99t16 156t20 183t20 183t16 154t6 97q0 16 -8 26t-18 19t-18 20t-8 27q0 38 19 58t43 36t48 37t34 61q10 72 32 151t49 158t56 158t55 153q6 22 20 32t31 12h9q13 0 26 -4q18 -6 32 -18q128 -186 235 -408t209 -450t209 -445t239 -395q-2 -20 -24 -38 t-52 -28t-59 -11t-43 13q-100 192 -183 351t-143 275t-95 183t-41 75q-52 -15 -106 -15q-12 0 -24 1q-66 4 -129 5h-9q-58 0 -110 -12q-56 -13 -98 -63q-4 -8 -13 -69t-21 -147t-26 -184t-25 -184t-20 -147t-11 -69q-8 -16 -26 -23t-39 -10t-43 -3h-38zM310 1048 q18 -18 73 -25q38 -5 81 -5q18 0 37 1q63 3 119 13t80 24q-10 58 -38 130t-64 143t-75 135t-71 108q-28 -80 -50 -158t-39 -147t-30 -125t-23 -94z" />
<glyph unicode="B" horiz-adv-x="1368" d="M16 1608q-3 15 -3 33q0 21 4 46q7 47 26 83t48 48q7 3 14 3q24 0 55 -31q48 7 101 7q67 0 142 -11q135 -20 260 -73t223 -136t132 -191q8 -24 8 -50q0 -31 -12 -65q-22 -61 -62 -120t-88 -109t-84 -84q66 -24 162 -81t183 -134t149 -166t62 -179q0 -100 -48 -175 t-124 -125t-168 -76t-182 -26q-28 0 -66 5t-73 20t-60 40t-25 65q34 0 90 4t121 16t131 32t119 50t87 73t34 101q-12 72 -60 137t-116 115t-150 85t-164 48q-48 8 -94 8q-32 0 -62 -4q-74 -9 -128 -47q2 -18 12 -67t24 -113t32 -138t37 -142t37 -125t32 -87q-6 -30 -32 -45 t-55 -12t-53 23t-26 58q-68 166 -112 361t-83 395t-83 395t-112 361zM214 1620q0 -80 14 -164t37 -169t50 -169t55 -164q92 0 177 29t152 80t109 125q48 85 48 169q0 43 -32 85q-34 44 -91 81t-130 66t-145 43q-63 12 -121 12h-16q-65 -2 -107 -24z" />
<glyph unicode="C" horiz-adv-x="1308" d="M38 986q0 158 60 309t162 268t239 188t291 71q30 0 86 -3t110 -16t95 -37t41 -66q0 -36 -21 -43t-53 -7q-100 46 -199 46t-190 -35t-172 -101t-142 -151t-101 -185t-50 -202q-4 -41 -4 -82q0 -116 34 -223q46 -145 131 -259t197 -191t229 -102q51 -11 101 -11 q64 0 125 18q109 32 187 136q14 26 35 19t35 -30q16 -27 16 -54q0 -24 -20 -35q-86 -116 -210 -161q-91 -33 -189 -33q-35 0 -71 4q-136 16 -270 91t-241 199t-174 296t-67 382z" />
<glyph unicode="D" horiz-adv-x="1574" d="M36 1734q4 62 29 88t54 26t55 -21t34 -53q107 32 217 32q50 0 100 -7q161 -21 311 -94t280 -188t226 -254t148 -296q45 -136 45 -271q0 -21 -1 -42q-10 -188 -91 -317t-207 -213t-283 -128t-319 -60q-38 6 -62 17t-40 29t-26 44t-18 62q81 -15 163 -15q67 0 134 10 q149 23 274 94t214 189t117 282q6 36 6 74q0 84 -30 178q-44 136 -131 265t-208 239t-256 177t-275 78q-19 1 -38 1q-119 0 -226 -60v-24q0 -107 16 -238q18 -146 46 -299t60 -301t60 -270t48 -205t22 -107q-4 -24 -17 -33t-31 -11t-40 2t-42 8q-68 206 -111 423t-75 427 t-62 405t-70 357z" />
<glyph unicode="E" horiz-adv-x="1704" d="M34 1602q86 76 196 122t231 68t246 25q25 1 50 1q98 0 190 -10q115 -12 215 -36t170 -54l-50 -90q-140 10 -290 17q-81 4 -162 4l-138 -3q-150 -6 -297 -30t-281 -74q-26 0 -53 13t-27 47zM150 1390q-7 21 -7 39q0 23 12 41q21 32 57 43q15 5 31 5q22 0 44 -9 q39 -15 57 -61v-428q91 -7 192 -7h26q116 1 235 9t234 20t211 28q18 -2 35 -12t30 -27t18 -37t-1 -40q-228 -52 -461 -73t-467 -25q0 -124 35 -252t104 -232t171 -171t234 -67q128 0 242 60t200 153t137 209t53 230q8 16 24 25t33 5t31 -24t18 -62v-23q0 -161 -52 -283 q-56 -130 -149 -217t-210 -136t-236 -63q-54 -6 -105 -6q-63 0 -122 9q-108 17 -184 61q-86 52 -154 139t-120 196t-90 234t-61 254t-34 256t-11 239z" />
<glyph unicode="F" horiz-adv-x="1642" d="M37 1706q0 34 17 62q18 30 58 32q382 6 639 15t421 15q141 5 224 5h26q86 -1 123 -16t40 -47t3 -90l-1054 -48q0 -152 17 -292t45 -290q94 -36 185 -37h17q85 0 187 9q113 10 260 19q63 4 136 4q98 0 215 -7q4 -12 4 -22q0 -24 -22 -42q-32 -26 -96 -45t-150 -31 t-179 -20t-185 -14t-166 -12t-123 -14t-57 -20q24 -74 49 -177t54 -210t62 -204t71 -157q-48 -62 -89 -64h-4q-39 0 -72 36q-35 38 -65 108t-56 154t-47 174t-40 166t-35 131t-30 71q-24 28 -57 33t-62 7t-50 12t-21 48q0 20 19 37t45 30t54 22t46 15l-68 582 q-52 0 -101 -11t-107 -15q-40 0 -60 29q-21 31 -21 69z" />
<glyph unicode="G" horiz-adv-x="1872" d="M48 820q0 110 39 227t105 230t155 214t189 177t206 121t206 45q84 0 193 -24t205 -73t162 -127t66 -186q-16 -24 -39 -17t-57 32t-80 62t-106 72t-135 62t-169 35q-92 0 -185 -41t-179 -110t-161 -161t-130 -194t-87 -209t-32 -207q20 -118 96 -223t182 -185t228 -133 t232 -67q38 -5 72 -5q67 0 123 18q85 27 117 107q1 9 1 18q0 63 -37 113q-42 57 -104 101t-130 78t-110 60q-36 20 -96 26t-119 15t-102 29t-43 68q0 56 52 82t121 35q56 7 112 7h24q34 -1 58 -1t39 1q108 0 230 11t225 20t172 9t75 -22q44 -58 66 -152t34 -206t18 -233 t15 -236t27 -214t56 -165q0 -54 -23 -72q-17 -13 -38 -13q-8 0 -17 2q-32 7 -65 34t-49 65q-2 4 -9 50t-17 121t-22 168t-26 190t-27 190t-26 166t-23 117t-18 44l-462 -42q60 -30 136 -66t141 -91t104 -135q30 -61 30 -143q0 -25 -3 -53q0 -72 -29 -121t-76 -78t-107 -41 t-122 -12q-120 0 -245 24t-241 72t-220 119t-180 164t-121 207t-45 250z" />
<glyph unicode="H" horiz-adv-x="1554" d="M30 932q0 28 21 45t49 27t56 15t42 9q0 84 -7 168t-16 170t-17 173t-10 177q8 64 40 89q28 22 56 22q5 0 9 -1q33 -4 56 -31q17 -20 17 -47q0 -9 -2 -20q2 -126 20 -285t46 -369q180 0 355 5t369 7q0 74 -18 167t-39 190t-38 190t-17 169q2 24 18 39t38 19q7 1 14 1 q16 0 32 -6q24 -9 40 -35q54 -182 98 -407t86 -462t86 -471t96 -432q2 -26 -10 -43t-35 -23q-11 -3 -22 -3q-14 0 -29 4q-28 7 -56 29l-214 920q-4 -4 -52 -5t-121 -1h-159q-86 0 -166 -3t-144 -11t-90 -22q20 -56 37 -153t37 -211t47 -234t67 -222q0 -34 -26 -52t-61 -19 h-5q-32 0 -62 11q-32 12 -44 38l-138 812q-2 0 -31 -4t-62 -8t-61 -8t-30 -4q-12 0 -21 12t-16 28t-10 32t-3 24z" />
<glyph unicode="I" horiz-adv-x="572" d="M94 1407q-2 48 -2 91q0 64 4 118q4 68 20 107t36 53q12 8 24 8q9 0 17 -4q21 -10 39 -38q16 -198 34 -427t49 -461t82 -453t135 -403q-8 -28 -32 -40q-14 -7 -31 -7q-11 0 -22 3q-29 8 -60 36t-53 82q-40 110 -76 242t-64 274t-49 286t-34 279t-17 254z" />
<glyph unicode="J" horiz-adv-x="1040" d="M26 910q-1 6 -1 12q0 18 10 32q13 18 34 26t44 2t41 -28q18 0 29 -60t26 -151t38 -197t68 -197t114 -151t177 -60q104 0 162 51t81 139q18 70 18 157q0 23 -1 47q-6 116 -31 247t-61 269t-73 267t-69 243t-46 198q-1 11 -1 21q0 27 8 42q11 21 26 29q10 5 21 5q5 0 11 -1 q17 -4 27 -14q32 -90 77 -216t91 -273t87 -305t64 -310q21 -140 21 -266v-22q-2 -136 -40 -240t-120 -167t-220 -67h-17q-157 0 -256 72q-105 76 -170 206t-101 302t-68 358z" />
<glyph unicode="K" horiz-adv-x="1350" d="M34 1746q2 40 20 67t43 36q10 4 21 4q15 0 31 -8q27 -13 45 -51q12 -94 24 -192t26 -192t27 -182t25 -160q98 68 196 151t186 177t164 196t132 208q29 21 52 21q7 0 14 -2q28 -9 43 -35t18 -58t-5 -52q-28 -42 -97 -136t-167 -207t-217 -228t-247 -199q44 -70 118 -136 t162 -127t187 -115t195 -100t182 -84t152 -66q10 -8 10 -25t-8 -34t-25 -32t-39 -21q-20 0 -84 21t-152 58t-189 87t-196 106t-173 115t-120 117l126 -644q6 -6 -10 -19t-43 -20q-13 -3 -26 -3q-16 0 -33 4q-32 8 -58 44q-10 58 -29 160t-43 235t-53 292t-60 330t-63 349 t-62 350z" />
<glyph unicode="L" horiz-adv-x="1256" d="M42 1674v31q0 17 4 33t14 29t30 19q10 2 19 2q35 0 58 -30q29 -38 44 -114t19 -183q3 -86 3 -183v-49q-1 -125 -4 -263t-3 -275t7 -267t25 -242q108 -10 226 -10h232q114 0 214 -5t171 -22t103 -51q19 -20 19 -49q0 -20 -9 -45q-90 6 -211 6t-248 -1t-249 -1t-217 3 t-150 13t-49 28q1 70 1 142q0 127 -4 262q-7 212 -17 425t-19 416t-9 381z" />
<glyph unicode="M" horiz-adv-x="1972" d="M18 1720q4 42 43 61q32 16 61 16q6 0 12 -1q64 -6 126 -63t126 -140t135 -181t153 -183t180 -145t216 -70q132 28 201 110t102 191t40 232t15 235q14 34 47 50q28 13 58 13h12q37 -3 72 -27t53 -70q52 -454 124 -904t148 -918q-24 -2 -44 -2q-51 0 -81 11q-41 15 -60 51 t-26 91t-19 125l-162 1112q-18 -76 -56 -161t-96 -159t-134 -122t-172 -48q-142 12 -258 73t-215 150t-187 198t-174 217q2 -78 24 -191t53 -242t65 -265t61 -262t43 -234q11 -75 11 -132q0 -25 -2 -47q-7 -71 -40 -97q-14 -11 -35 -11q-29 0 -70 21q-26 84 -54 206t-56 266 t-57 304t-59 323t-61 321t-63 298z" />
<glyph unicode="N" horiz-adv-x="2002" d="M24 1720q0 34 11 60t65 30q126 -106 254 -245t262 -292t273 -310t286 -300t303 -261t322 -194q-4 150 -35 342t-86 399t-132 416t-173 393q-10 24 -1 46t28 36t46 18q7 1 14 1q20 0 41 -9q124 -202 208 -410t138 -402t82 -366t38 -303q8 -109 8 -185v-29q-2 -83 -8 -99 q0 -44 -32 -59t-66 -15q-158 68 -313 172t-303 228t-285 261t-260 273t-229 262t-190 228q28 -80 53 -200t45 -256t35 -278t22 -269q6 -111 6 -203v-26q-1 -102 -11 -156q-18 -6 -50 -9t-62 2t-53 19t-25 44q18 110 19 247v18q0 129 -13 267q-14 148 -38 302t-56 299 t-68 277t-70 236z" />
<glyph unicode="O" horiz-adv-x="1810" d="M46 636q0 162 39 332t105 323t154 277t184 196t196 79q8 1 16 1q91 0 174 -76q96 -10 192 -83t186 -184t167 -250t135 -281t91 -274t33 -230q0 -146 -53 -238t-143 -143t-209 -70t-251 -19q-88 0 -198 16t-223 49t-220 84t-190 122t-134 163t-51 206zM236 642 q0 -84 40 -154t106 -126t151 -97t175 -68t178 -41t162 -14q92 0 183 12t161 48t114 102t44 172q0 96 -25 207t-69 226t-103 226t-125 207t-136 171t-138 117q0 -12 10 -31t17 -39t6 -36t-23 -20q-84 86 -160 111q-40 13 -77 13q-34 0 -66 -11q-67 -23 -125 -85t-105 -147 t-83 -185t-61 -201t-38 -194t-13 -163z" />
<glyph unicode="P" horiz-adv-x="1372" d="M74 1604q74 118 193 177t256 67q23 1 46 1q114 0 230 -33q139 -40 254 -121t191 -198t84 -263v-14q0 -69 -37 -139q-41 -77 -113 -147t-168 -127t-202 -96t-215 -55q-54 -8 -105.5 -8t-99.5 8l232 -632q-24 -18 -54 -25q-19 -4 -37 -4q-10 0 -21 1q-28 4 -50 23t-30 53 q-40 96 -81 217t-81 255t-75 276t-61 280t-41 267t-15 237zM220 1532q6 -60 18 -151t29 -193t40 -202t51 -176q36 -7 81 -7q30 0 64 3q85 8 178 33t184 66t161 96t111 123q34 57 34 122q0 13 -1 26q-10 102 -68 182t-143 133t-189 78q-84 20 -167 20q-20 0 -40 -1 q-103 -6 -193 -43t-150 -109z" />
<glyph unicode="Q" horiz-adv-x="2024" d="M24 1178v19q0 102 40 196q44 103 120 188t177 146t209 86q66 15 132 15q42 0 85 -6q109 -16 201 -84q63 21 124 21q46 0 91 -12q105 -27 199 -100t176 -184t144 -242t101 -274t51 -281q4 -52 4 -102q0 -83 -12 -160q-20 -124 -76 -218q6 -22 47 -48t79 -56t52 -63 q3 -7 3 -15q0 -26 -37 -56q-38 10 -81 28t-85 39t-80 42t-62 33q-126 -78 -292 -94q-47 -4 -94 -4q-121 0 -247 29q-175 41 -345 138t-305 244t-223 342t-96 433zM212 1194q0 -172 62 -327t165 -284t234 -224t270 -147t273 -56h17q124 0 225 54q0 4 2 6q0 2 1 3t1 3t-2 6 t-2 6q-24 22 -57 49t-63 58t-51 66t-21 77q0 87 69 87q13 0 29 -3q18 -20 48 -53t65 -69t74 -68t75 -50q2 -2 4 -2h8q56 52 78 138q18 70 18 153q0 19 -1 38q-5 105 -34 220t-76 225t-108 208t-130 168t-143 104q-48 22 -96 22q-25 0 -50 -6q2 -28 13 -56t22 -58t16 -61 t-3 -63h-8q-42 0 -71 19q-31 21 -54 53t-45 70t-53 71t-74 54t-111 21q-94 0 -187 -31t-166 -89t-118 -142t-45 -190z" />
<glyph unicode="R" horiz-adv-x="1636" d="M50 1618q0 40 28 72t73 56t101 41t110 27t102 15t76 5q21 1 42 1q116 0 236 -28q142 -33 257 -105t189 -180t74 -250q0 -50 -34 -111t-87 -125t-119 -128t-129 -122t-118 -108t-85 -84q32 -8 102 -21t156 -31t179 -39t175 -45t141 -50t77 -52q-16 -68 -44 -91 q-22 -18 -55 -18q-9 0 -18 1q-45 6 -111 31t-161 53t-222 50q-116 20 -264 20h-27l152 -384q0 -10 -14 -15t-34 -7t-42 -2h-40q-42 6 -67 35t-41 70t-28 88t-26 91t-37 77t-61 47q-18 8 -43 12t-48 13t-38 25t-15 46q0 38 21 65t53 55q-48 104 -76 206t-45 205t-27 208 t-20 213q-4 46 -31 64t-57 29t-55 24t-25 51zM410 1405q0 -121 12 -242t42 -241t88 -234h8q34 0 86 31q58 35 125 92t134 130t122 145t89 134t34 100q0 74 -38 132t-100 99t-141 67t-161 37q-60 8 -119 8q-21 0 -42 -1q-79 -4 -139 -20v-237z" />
<glyph unicode="S" horiz-adv-x="1144" d="M30 1410q0 126 62 214t160 139t219 65q46 5 91 5q74 0 147 -14q117 -23 216 -81t155 -150q12 -28 0 -47t-35 -30t-49 -13t-42 4q-62 74 -139 117t-157 60q-52 11 -103 11q-27 0 -54 -3q-77 -9 -138 -40t-100 -82t-44 -119q-1 -8 -1 -17q0 -61 32 -135q36 -84 126 -178 l626 -652q68 -60 85 -142q7 -33 7 -65q0 -46 -15 -89q-25 -72 -86 -122q-59 -48 -140 -48h-7q-138 0 -245 61t-180 159t-112 221t-39 245q0 8 1 25t7 37t21 39t43 31q12 0 25 -48t33 -120t49 -156t74 -156t108 -120t151 -48q24 0 49 3t46 12t35 26t14 45q4 50 -62 132 t-167 183t-220 214t-220 224t-167 215q-60 95 -60 174v14z" />
<glyph unicode="T" horiz-adv-x="1420" d="M12 1636q24 38 90 65t158 45t203 29t226 18t226 11t204 10t159 13t92 19q36 -12 41 -38q1 -6 1 -13q0 -20 -11 -39q-15 -26 -42 -48t-53 -24l-536 -26l286 -1624q-24 -66 -52 -79q-17 -8 -32 -8q-10 0 -20 4q-24 9 -39 26t-15 13q-58 308 -102 542t-76 409t-55 297 t-38 203t-23 127t-12 72l-542 -68q-16 10 -28 28t-10 36z" />
<glyph unicode="U" horiz-adv-x="1656" d="M34 1704q2 40 27 72t56 44t62 -2t45 -66q0 -150 24 -325t76 -350t130 -336t186 -286t245 -199t305 -74q100 16 155 75t75 147q14 61 14 132q0 32 -3 66q-9 110 -36 230t-67 243t-83 236t-82 209t-63 162q-6 19 -6 38q0 18 5 37q11 39 35 62q22 21 51 21h5q32 -2 62 -46 q42 -100 93 -229t101 -272t92 -292t64 -290q19 -119 19 -228q0 -20 -1 -39q-4 -126 -47 -222t-129 -155t-230 -67h-10q-187 0 -346 76q-164 78 -297 211t-234 307t-168 364t-99 383q-27 163 -27 309q0 27 1 54z" />
<glyph unicode="V" horiz-adv-x="1600" d="M-2 1714q0 26 12 45t31 32t42 19t47 6q28 -66 72 -178t109 -251t154 -295t207 -310t269 -299t341 -259q34 98 55 221t32 259t14 277q2 85 2 167q0 55 -1 110q-2 136 -8 259t-12 223q2 36 19 65t42 39q10 4 20 4q16 0 34 -10q29 -16 57 -70q0 -94 1 -218q0 -62 0.5 -128 t-0.5 -137q-1 -141 -5 -295t-16 -308t-33 -304t-55 -282q-2 -28 -26 -46t-53 -26t-55 -8t-32 8q-62 16 -167 89t-229 191t-257 275t-253 339t-215 384t-143 412z" />
<glyph unicode="W" horiz-adv-x="2300" d="M19 1448q-7 65 -7 124q0 70 10 130q6 32 27 57t47 36t51 5t41 -36q12 -134 29 -304t58 -361t116 -391t201 -394q36 36 66 124t58 198t57 228t65 216t81 160q44 60 101 60h4q72 -60 158 -165t174 -229t175 -251t162 -230t132 -167q55 -62 85 -62h2q48 44 72 131t32 200 q6 82 6 174q0 35 -1 71q-3 132 -7 265t-6 260v39q0 105 9 193q11 105 38 178t81 101q26 24 54 29q10 2 19 2q16 0 28 -6q19 -9 25 -33q2 -7 2 -14q0 -19 -12 -44q-24 -82 -36 -198t-16 -249t-5 -277t-5 -282t-13 -264t-31 -225t-60 -162t-98 -77q-20 -3 -40 -3 q-57 0 -113 25q-75 34 -149 104t-150 169t-158 218t-171 250t-189 265q-16 0 -33 -44t-36 -116t-40 -163t-45 -187t-51 -188t-58 -166t-66 -121t-75 -53q-6 -1 -12 -1q-24 0 -40 13q-20 16 -36 36q-56 76 -121 198t-126 270t-116 310t-92 321t-52 303z" />
<glyph unicode="X" horiz-adv-x="1492" d="M28 1690q2 24 5 48t12 45t26 35t51 16q60 -74 125 -181t138 -220t156 -221t179 -186q60 72 122 173t126 206t126 200t122 157t116 76q11 3 22 3q44 0 84 -45q-6 -18 -65 -94t-147 -194t-193 -271t-203 -327l590 -802q-4 -36 -9 -62t-18 -43t-35 -25q-18 -6 -45 -6h-15 q-6 2 -43 57t-92 135t-120 176t-127 180t-111 145t-73 75q-18 -12 -47 -66t-63 -130t-70 -163t-67 -164t-54 -132t-33 -69q-30 -18 -61 -19t-53 9t-33 29t-1 41q56 162 124 309t125 255t91 164t22 36q-48 70 -121 162t-154 201t-163 232t-146 255z" />
<glyph unicode="Y" horiz-adv-x="1406" d="M10 1728q0 52 21 81t79 29q196 -322 445 -557t553 -397q24 104 27 212q1 29 1 59q0 79 -6 158q-8 109 -22 216t-24 211q-4 16 -4 31q0 21 7 42q13 37 38 61t56 31q7 2 14 2q23 0 41 -19q8 -108 15 -177t13 -124t11 -111t9 -137t7 -200t7 -303q30 -10 48 -43t18 -68 t-22 -62t-72 -27q-30 -146 -81 -293t-135 -266t-208 -193t-298 -74q-82 0 -150 31t-117 85t-76 125t-27 153q-3 19 -3 37q0 15 2 31q5 34 19 59t36 35t52 -6q18 -190 85 -281t157 -104q17 -2 34 -2q75 0 156 45q100 56 184 158t138 242t54 296q-68 0 -174 62t-226 159 t-242 216t-219 232t-159 206t-62 139z" />
<glyph unicode="Z" horiz-adv-x="1436" d="M46 1736q0 38 24 62t63 36t86 15q35 2 69 2h23q45 -1 83 -4t58 -3q78 0 177 -9t198 -29t193 -55t163 -87t105 -123q27 -53 27 -118q0 -22 -3 -45q0 -48 -38 -146t-125 -243t-227 -334t-344 -417q88 -34 185 -47t190 -18t177 -6t146 -14t99 -42t35 -87q7 0 7 -1 q0 -2 -24 -6q-37 -7 -112 -15t-177 -14q-68 -4 -138 -4q-35 0 -70 1q-106 3 -208 20t-176 54t-111 98q-23 38 -23 89q0 30 8 64q228 228 371 418t224 333t111 235t30 124q-38 66 -106 112t-152 76t-180 45t-189 19q-37 2 -73 2q-54 0 -107 -4q-87 -6 -153 -18q-46 0 -81 16 t-35 68z" />
<glyph unicode="[" horiz-adv-x="734" d="M103 34q-1 100 5 234t12 291t10 330t-4 351q-6 206 -9 366t9 265t43 152t95 25l370 -30q0 -14 -1 -38t-7 -48t-16 -43t-28 -23l-310 6l-18 -1882q30 -20 94 -21t129 -2t114 -11t49 -48q0 -14 -1 -32t-6 -35t-14 -29t-27 -12l-432 10q-30 6 -43 65t-14 159z" />
<glyph unicode="\" horiz-adv-x="1452" d="M18 1748q0 34 27 66t67 32l1338 -1716q6 -24 3 -51t-15 -47t-35 -30t-57 -4z" />
<glyph unicode="]" horiz-adv-x="690" d="M64 -92q0 38 49 48t114 11t129 2t94 21l-18 1882l-310 -6q-18 4 -28 23t-16 43t-7 48t-1 38l370 30q64 22 95 -25t43 -152t9 -265t-9 -366q-6 -176 0 -352t15 -336t16 -297t5 -237t-17 -156t-53 -52l-432 -10q-18 0 -27 12t-14 29t-6 35t-1 32z" />
<glyph unicode="^" horiz-adv-x="802" d="M42 697q-2 21 16 39q0 12 16 43t40 72t53 86t56 83t48 62t29 24q52 38 90 31t69 -43t60 -92t62 -116t73 -117t94 -93q-42 -58 -85 -59t-84 31t-78 84t-66 101t-48 82t-23 27l-194 -276q-34 -24 -62 -22t-46 17t-20 36z" />
<glyph unicode="_" horiz-adv-x="1476" d="M48 121q6 39 48 69q152 6 305 4t305 0t303 16t301 52q36 -22 54 -57t16 -71t-25 -67t-69 -43q-152 4 -288 0t-267 -10t-262 -11t-271 -5q-46 -16 -83 2t-55 50t-12 71z" />
<glyph unicode="`" horiz-adv-x="496" d="M26 1804q0 52 21 82t79 26q22 -28 66 -54t93 -52t94 -53t70 -57t19 -63t-58 -73q-36 20 -91 52t-112 67t-106 68t-75 57z" />
<glyph unicode="a" horiz-adv-x="1472" d="M44 518q-3 31 -3 64q0 57 9 116q14 94 45 184t80 170t113 139t142 90q65 26 139 26q14 0 29 -1q68 0 138 -31t130 -67t104 -67t56 -31q16 22 43 35t55 13t51 -16t29 -54q2 -74 2 -166t4 -192t16 -201t39 -193t71 -168t114 -126q5 -15 5 -26q0 -43 -63 -48q-46 0 -93 37 t-90 87t-79 103t-60 85q-58 -110 -156 -178t-212 -93q-66 -15 -134 -15q-48 0 -97 8q-117 18 -212 81t-155 171t-60 264zM203 671q-5 -44 -5 -88q0 -48 6 -95q12 -90 49 -162t100 -118t155 -50q132 0 248 54t194 162q34 66 45 148q6 41 5.5 82.5t-5.5 84.5q-11 85 -42 167 t-79 145t-112 101t-140 38q-15 1 -30 1q-71 0 -131 -31q-73 -38 -126 -104t-87 -154t-45 -181z" />
<glyph unicode="b" horiz-adv-x="1452" d="M44 1570q0 54 18 88t68 34q28 0 47 -8t33 -42q20 -84 42 -201t49 -253t58 -282t69 -284q6 78 37 162t88 154t142 116t199 46q62 0 135 -36t143 -99t129 -149t92 -187t33 -212t-46 -223q-28 -68 -75 -113t-102 -71t-116 -38t-119 -15q-44 -2 -82 -2h-26q-50 1 -84 1h-7 q-74 0 -107 41q-34 43 -42 123q16 -10 74 -18t126 -11q41 -2 80 -2q26 0 51 1q63 2 89 14q88 20 140 68t74 115q18 55 18 116q0 14 -1 28q-5 77 -30 154t-67 146t-94 119t-111 73q-37 14 -74 14q-23 0 -45 -5q-80 -4 -137 -56t-94 -131t-55 -175t-21 -189q-1 -20 -1 -39 q0 -71 9 -133q11 -79 35 -123q8 -22 5 -46t-17 -38t-40 -14t-64 26q-48 78 -89 192t-78 247t-71 280t-66 294t-62 286t-60 257z" />
<glyph unicode="c" horiz-adv-x="1324" d="M64 606q4 120 56 230t135 203t189 161t218 102q93 28 183 28q19 0 37 -1q108 -7 198 -63q14 -28 12 -49t-15 -35t-34 -19t-43 1q-44 16 -96 16q-26 0 -54 -4q-84 -12 -172 -50t-172 -98t-152 -133t-110 -152t-46 -157q-1 -11 -1 -22q0 -100 49 -173q54 -81 144 -129 t204 -62q51 -6 103 -6l125 9q114 17 216 67t170 132q19 10 34 10q16 0 29 -11q25 -21 25 -61q-78 -132 -201 -212t-262 -108q-76 -15 -153 -15q-63 0 -126 10q-140 23 -251 96t-178 197q-61 114 -61 270v28z" />
<glyph unicode="d" horiz-adv-x="1864" d="M46 566q2 124 51 215t129 153t183 98t213 51q87 12 174 12l46 -1q110 -4 206 -22q-14 68 -19 154q-2 36 -2 72q0 51 4 103q7 89 26 172t51 145t76 95q32 24 73 24q15 0 31 -3q76 -14 118 -85t59 -176q14 -89 14 -197v-38q-3 -130 -21 -261t-45 -252t-55 -209 q16 -98 72 -183t128 -143t150 -81q37 -11 69 -11q37 0 69 14q5 -31 5 -53q0 -21 -7 -42q-8 -23 -27 -43t-55 -32q-16 -1 -31 -1q-51 0 -99 15q-62 20 -115 55t-98 78t-76 83t-49 71t-20 41q-38 -118 -110 -198t-164 -125t-197 -57q-43 -5 -87 -5l-123 10q-105 17 -202 63 t-172 117t-122 166t-51 211zM212 556q34 -150 115 -242t185 -132q82 -31 167 -31q24 0 48 2q111 11 207 67t161 154t75 234q-12 136 -88 216t-184 111q-76 22 -159 22q-35 0 -70 -4q-121 -13 -224 -64t-169 -136t-64 -197zM1206 1336q0 -66 4 -129t11 -118t17 -89q2 -2 6 -2 h8h6q2 0 4 2q14 26 23 81t14 123t6 139v23q0 57 -4 106q-5 58 -14 95t-23 37q-20 -10 -33 -50t-19 -96t-6 -122z" />
<glyph unicode="e" horiz-adv-x="1620" d="M4 552h25q17 0 34 3t29 12t12 27q-24 87 -24 173q0 67 15 132q33 149 123 265t226 186q132 68 289 68h9q94 0 184 -30t161 -87t115 -140t44 -187q0 -102 -43 -179t-115 -136t-164 -101t-188 -73t-186 -53t-158 -40q78 -96 172 -148t195 -68q54 -9 109 -9q49 0 99 7 q107 14 211 49t202 86t182 109q11 -24 11 -51q0 -56 -49 -120q-72 -95 -262 -175q-138 -58 -294 -61h-20q-145 0 -281 40q-145 43 -269 130t-200 211q-30 20 -64 29t-63 21t-48 35t-19 75zM248 701q14 -87 70 -167q58 8 140 22t169 36t173 56t153 82t109 114t42 154 q0 66 -30 117t-78 87t-107 54t-117 18q-16 1 -31 1q-77 0 -149 -25q-86 -30 -155 -86t-117 -132t-67 -160q-11 -48 -11 -98q0 -36 6 -73z" />
<glyph unicode="f" horiz-adv-x="1524" d="M-38 922q10 32 47 46t89 17q26 2 54 1.5t59 -1.5q61 -3 118 -6q43 -2 80 -2h24q47 1 71 15q-104 170 -119 308q-4 33 -4 64q0 98 37 174q48 100 148 162t229 82q57 9 118 9q75 0 155 -14q144 -25 280 -97q38 -22 59 -51q23 -32 23 -67q0 -27 -14 -51q-16 -27 -52 -43 q-110 88 -230 134t-227 48h-10q-101 0 -181 -40q-84 -42 -123 -129q-28 -62 -28 -146q0 -34 5 -72q16 -131 112 -309q194 2 306 3t174 1t88 -4t46 -14q1 -15 1 -28q0 -59 -22 -79q-27 -25 -92 -25t-168 10q-57 6 -127 6q-56 0 -120 -4q20 -56 52 -128t67 -152t72 -161 t69 -155t55 -135t31 -99q-31 -20 -60 -20q-23 0 -44 13q-48 29 -91 100t-84 170t-80 202t-81 200t-86 161q-34 5 -83 5h-17q-60 -1 -127 -3t-135 -2t-123 10t-94 32t-47 64z" />
<glyph unicode="g" horiz-adv-x="1630" d="M64 721q0 121 53 222q55 105 145 182t208 124t240 60q43 5 85 5q78 0 156 -16q119 -24 213 -90v14q0 24 4 60q6 48 26 84t56 46q6 2 14 2q33 0 82 -38q0 -86 20 -221t50 -296t67 -337t73 -345t65 -321t45 -264q1 -29 1 -57q0 -94 -15 -185q-20 -118 -74 -208t-147 -142 q-81 -45 -197 -45q-18 0 -36 1q-178 8 -308 85t-219 191t-137 253t-60 273q0 12 20 26t48 19t57 -6t45 -53q2 -64 21 -134t50 -138t75 -130t98 -110t116 -76t132 -28q38 -5 72 -5q86 0 143 33q79 46 117 135t41 209v38q0 102 -13 209q-16 127 -45 251t-55 220 q-76 -94 -204 -134q-114 -36 -243 -36q-16 0 -32 1q-147 5 -298 53t-273 134t-201 206q-81 123 -81 279zM242 668q8 -98 57 -177t126 -138t173 -97t194 -51q51 -7 101 -7q46 0 91 6q94 12 167 52t117 108t44 168q-2 166 -50 285t-126 197t-177 115t-201 38h-6 q-99 0 -193 -33q-97 -34 -170 -98t-114 -157q-34 -78 -34 -173q0 -19 1 -38z" />
<glyph unicode="h" horiz-adv-x="1708" d="M16 1832q2 18 27 26q18 6 39 6q8 0 16 -1q30 -3 56 -20t32 -47q18 -74 34 -128t31 -111t29 -125t30 -168t34 -244t42 -350q8 18 26 70t46 119t68 140t94 131t123 93q54 27 118 27q18 0 37 -2q102 -2 195 -64t174 -163t149 -229t120 -263t87 -265t51 -234q0 -26 -13 -38 t-31 -18t-38 -10t-32 -12q-32 82 -69 194t-83 234t-100 241t-119 214t-140 154t-163 61q-78 -2 -138 -57t-106 -142t-81 -197t-61 -223t-46 -219t-36 -184q-2 -16 -20 -23t-40 -7t-42 8t-26 24q-12 134 -24 250t-27 234t-34 245t-46 283t-62 349t-81 441z" />
<glyph unicode="i" horiz-adv-x="534" d="M22 1582q0 26 22 41t49 16h3q25 0 47 -14q23 -15 25 -47q-6 -48 -31 -62t-52 -7t-47 29t-16 44zM94 1276q8 26 30 38q15 8 33 8q9 0 20 -2q31 -6 61 -34l262 -1148q8 -34 8 -64t-11 -51t-37 -29q-12 -4 -27 -4q-19 0 -43 6l-292 1216q-7 23 -7 41q0 13 3 23z" />
<glyph unicode="j" horiz-adv-x="760" d="M-122 -390q-2 22 17 35t45 13t49 -16t29 -52q-6 -26 -6 -54q0 -48 18 -99q28 -81 82 -148t124 -108q59 -34 114 -34q11 0 22 1q38 4 74 21t65 52t46 90t21 137q1 36 1 71q0 181 -34 352q-41 205 -101 385t-124 332t-102 264q-4 42 12 60t39 19t44 -11t27 -32 q72 -136 140 -306t123 -349t90 -351t41 -310q1 -25 1 -50q0 -114 -23 -206q-28 -112 -78 -187t-119 -111q-59 -31 -123 -31q-11 0 -22 1q-96 8 -194 67t-171 147t-111 195q-24 68 -24 135q0 39 8 78zM98 1282q32 44 62 55q13 5 26 5q16 0 30 -8q26 -14 46 -46t30 -70 q-12 -54 -44 -68q-15 -7 -31 -7q-17 0 -35 8q-34 15 -59 50t-25 81z" />
<glyph unicode="k" horiz-adv-x="1264" d="M20 1714q10 100 60 110q7 1 15 1q44 0 99 -49q-3 -68 -3 -142q0 -62 2 -130q5 -148 19 -295t36 -282t50 -235l600 592q22 14 53 21t57 -1t37 -34q4 -11 4 -25q0 -21 -9 -49l-560 -572q74 -82 174 -140t202 -103t195 -82t151 -78t70 -93q2 -9 2 -18q0 -46 -48 -106 q-124 90 -240 144t-226 102t-213 104t-201 150v-12q0 -90 27 -175q29 -91 57 -167t39 -133q2 -13 2 -24q0 -40 -29 -63q-27 -27 -53 -27q-20 0 -40 17q-45 38 -85 135t-75 240t-63 306t-50 334t-35 323t-19 272q-4 72 -4 124q0 34 2 60z" />
<glyph unicode="l" horiz-adv-x="478" d="M66 1728q10 28 30 47t44 23q6 1 11 1q18 0 35 -10q22 -13 38 -47q-2 -122 -6 -275t-4 -314t7 -320t29 -294t61 -237t103 -148q32 -24 41 -55q6 -20 6 -38q0 -10 -2 -20q-5 -27 -22 -45q-14 -15 -30 -15q-4 0 -7 1q-112 62 -175 165t-93 238t-37 296t-7 334t-1 354 t-21 359z" />
<glyph unicode="m" horiz-adv-x="2398" d="M40 1496q47 32 85 32q7 0 13 -1q42 -7 74 -48t57 -107t47 -144t44 -161t48 -157q6 110 28 197t66 144t112 81q41 14 92 14q34 0 74 -6q58 -26 107 -77t88 -114t70 -131t56 -128t43 -105t32 -63q2 86 15 191t61 198t142 156t254 65h17q96 0 176 -62q87 -68 158 -182 t126 -258t98 -288t74 -273t55 -213q0 -28 -12 -44t-32 -23t-43 -8t-47 1q-20 86 -50 204t-70 246t-88 255t-104 232t-120 176t-134 87q-112 -18 -176 -83t-97 -160t-40 -207q-5 -78 -5 -156q0 -33 1 -66q3 -110 9 -207q4 -58 4 -105q0 -31 -2 -56q2 -10 -12 -27t-34 -27 t-43 -7t-39 33q-34 86 -73 199t-80 232t-83 232t-85 200t-86 139q-40 48 -77 48h-6h-5q-56 0 -91 -42q-36 -44 -55 -118t-22 -170q-1 -26 -1 -53q0 -71 6 -145q8 -102 24 -203t35 -184t38 -141t33 -74q-6 -36 -31 -50q-22 -12 -46 -12h-7q-28 2 -53 18t-31 44 q-46 88 -85 208t-74 254t-70 275t-74 273t-82 249t-97 203z" />
<glyph unicode="n" horiz-adv-x="1678" d="M42 1196q0 52 38 69q20 9 41 9q20 0 43 -8l182 -626q4 72 19 154t43 162t71 154t103 131t139 92t181 37q8 1 17 1q87 0 171 -57q92 -62 173 -168t149 -243t117 -283t78 -287t31 -255q-4 -36 -27 -48t-49 -8t-44 20t-12 36q-4 84 -31 202t-71 245t-102 252t-124 226 t-138 165t-142 70q-104 -18 -183 -92t-134 -180t-87 -231t-44 -248q-8 -78 -8 -150q0 -42 3 -83q7 -110 29 -182q2 -13 2 -24q0 -25 -12 -39q-18 -21 -45 -26q-10 -2 -21 -2q-17 0 -35 5q-29 8 -41 24q-40 168 -68 316t-56 289t-64 283t-92 298z" />
<glyph unicode="o" horiz-adv-x="1544" d="M42 658q0 156 49 282t138 216t212 141t273 55h24q158 0 286 -50q138 -54 237 -147t159 -214t76 -248q5 -42 5 -84q0 -84 -21 -167q-32 -124 -114 -222t-217 -161t-329 -69h-26q-131 0 -258 36q-140 40 -249 124t-177 212t-68 296zM206 634q0 -138 63 -230t158 -148 t204 -79q100 -21 186 -21h15q146 4 248 53t164 126t83 173q12 56 12 113q0 41 -6 82q-15 99 -66 193t-134 165t-198 112q-96 34 -211 34q-22 0 -46 -1q-92 -4 -177 -40t-151 -106t-105 -176t-39 -250z" />
<glyph unicode="p" horiz-adv-x="1368" d="M68 1070q0 104 24 174q24 30 48 39t43 5t31 -16t14 -24q-16 -60 -17 -123v-16q0 -54 6 -104q7 -57 21 -106t26 -83q2 0 15 41t39 101t68 129t104 123t144 83q49 17 106 17q40 0 84 -8q108 -20 200 -72t159 -129t103 -177q31 -86 31 -183q0 -16 -1 -33q-12 -98 -57 -186 t-112 -162t-151 -133t-174 -97t-181 -54q-56 -10 -108 -10q-32 0 -63 4q6 -58 30 -129t56 -142t66 -134t56 -105q4 -24 -8 -43t-31 -28q-16 -7 -33 -7h-8q-22 2 -38 18q-34 36 -78 115t-91 187t-94 237t-88 266t-74 274t-50 262t-17 229zM390 423q12 -109 60 -185 q62 -20 127 -20q25 0 51 3q92 11 178 52t160 106t125 144t71 165q10 42 10 83q0 43 -11 86q-21 83 -90 159t-197 132q-53 23 -101 23q-36 0 -71 -13q-80 -30 -143 -106t-106 -184t-59 -222q-9 -65 -9 -129q0 -47 5 -94z" />
<glyph unicode="q" horiz-adv-x="1614" d="M56 774q24 162 101 271t185 170t238 76q49 6 98 6q82 0 164 -16q132 -25 256 -87t220 -156l6 222q16 24 49 28t63 -6t49 -32t7 -50q2 -232 8 -401t19 -304t33 -255t49 -257t70 -307t97 -406q5 -14 5 -27q0 -18 -11 -32q-18 -23 -46 -28q-7 -1 -15 -1l-41 10 q-28 14 -36 54q-26 52 -51 145t-51 205t-50 232t-46 225t-40 184t-32 109q-60 -130 -151 -211t-198 -119q-102 -36 -212 -36h-12q-117 2 -229 40t-209 108t-167 167t-104 218q-22 79 -22 166q0 47 6 95zM194 694q22 -176 114 -299t218 -187t265 -66h8q134 0 247 64 q116 66 189 203q67 127 67 319v32q-26 86 -87 153t-143 112t-178 68q-88 21 -177 21h-16q-97 -2 -187 -27t-161 -77t-114 -131t-45 -185z" />
<glyph unicode="r" horiz-adv-x="1416" d="M58 1362q0 32 18 47t42 15t48 -13t36 -39q22 -80 43 -167t45 -177t52 -182t68 -182q8 2 9 56t9 135t29 174t72 175t138 138t225 62q18 1 36 1q69 0 147 -12q99 -15 175 -47t112 -82q17 -24 17 -51q0 -30 -21 -65q-36 10 -58 29t-59 37t-106 32t-199 14q-122 0 -199 -69 t-120 -180t-55 -249q-8 -87 -8 -174q0 -50 3 -100q7 -136 28 -258t45 -198q-6 -26 -27 -41t-45 -15t-47 15t-33 51q-28 96 -68 212t-83 239t-86 247t-80 239t-65 213t-38 170z" />
<glyph unicode="s" horiz-adv-x="1104" d="M56 519q-10 56 -10 110.5t10 108.5q14 40 34 59t38 20t32 -11t16 -32q-2 -19 -2 -44.5t2 -56.5q4 -63 18 -136t40 -146t68 -131t100 -94q52 -32 122 -32h16q52 16 64 40t12 72q-32 120 -85 231t-108 220t-102 220t-67 233q-3 31 -3 59q0 91 29 160q38 91 109 146t164 76 q56 13 112 13q38 0 76 -6q95 -14 183 -61t150 -125q8 -14 8 -32t-9 -34t-27 -27t-46 -11q-44 42 -105 78t-127 56t-132 21h-5q-63 0 -115 -27q-54 -28 -89 -89t-39 -163q6 -94 42 -194t84 -201t99 -199t87 -191t48 -177q3 -24 3 -47q0 -58 -21 -109q-78 -72 -163 -80 q-14 -1 -29 -1q-70 0 -138 32q-82 39 -153 116t-121 176t-70 210z" />
<glyph unicode="t" horiz-adv-x="1000" d="M-34 1110l406 96l-64 436q0 38 23 52q19 12 42 12q5 0 10 -1q29 -3 56 -20t35 -43l76 -402l408 88q18 -4 33 -21t23 -39q6 -18 6 -36q0 -30 -20 -50l-426 -108q24 -94 51 -225t55 -273t58 -280t64 -244q-4 -24 -28 -36t-53 -14h-13q-22 0 -41 5q-25 7 -31 21l-230 1010 l-332 -74q-68 0 -90 43q-19 36 -19 85q0 9 1 18z" />
<glyph unicode="u" horiz-adv-x="1504" d="M44 1170q2 36 25 51t48 14t47 -19t26 -50v-24q0 -177 56 -344q60 -178 169 -316t256 -221t317 -85q110 0 178 47t105 123t47 172q6 56 6 115q0 41 -3 82q-7 101 -26 197t-41 171t-43 120t-31 45q0 46 31 71q16 13 39 13q20 0 44 -10q70 -128 115 -279t60 -302 q7 -67 7 -131q0 -81 -11 -157q-19 -137 -82 -239t-172 -156q-82 -40 -193 -40q-37 0 -78 4q-118 10 -233 61t-218 132t-190 187t-147 230t-90 261q-21 98 -21 197q0 40 3 80z" />
<glyph unicode="v" horiz-adv-x="1398" d="M20 1444q0 56 33 79q19 13 44 13q20 0 45 -8q108 -178 210 -351t213 -336t240 -313t291 -282l98 1250q-2 18 27 27q22 7 46 7q8 0 16 -1q33 -3 56 -21q15 -12 15 -31q0 -10 -4 -23q-8 -132 -18 -294t-21 -327t-26 -322t-32 -277t-38 -192q-20 -68 -44 -68h-3 q-172 126 -338 293t-316 358t-276 399t-218 420z" />
<glyph unicode="w" horiz-adv-x="1984" d="M46 1276q4 30 36 48q26 15 50 15q5 0 10 -1q30 -4 47 -35t27 -69t15 -75t9 -53q32 -108 70 -224t81 -231t92 -225t107 -202q26 28 48 85t42 128t40 146t45 140t55 111t70 58q76 -30 139 -75t123 -101t120 -120t131 -129t157 -128t198 -117q12 61 12 139q0 24 -1 50 q-5 109 -11 231q-4 92 -4 185v62q2 125 32 237q6 24 29 39t47 17t45 -9t25 -39q-22 -136 -26 -269q-2 -76 -2 -152q0 -57 1 -114q3 -133 9 -265t8 -266q-26 -48 -56 -56q-20 -5 -44 -5q-12 0 -24 1q-122 58 -229 136t-210 166t-204 179t-211 175q-34 -6 -58 -59t-45 -129 t-42 -161t-48 -157t-62 -118q-31 -41 -74 -41q-6 0 -11 1q-28 2 -67 52t-85 130t-95 184t-96 215t-88 221t-71 205t-45 166q-12 56 -12 88q0 8 1 15z" />
<glyph unicode="x" horiz-adv-x="1466" d="M12 1466q24 53 65 53h7q46 -5 105 -51t126 -125t136 -168t136 -181t127 -164q20 12 51 61t70 117t83 147t88 152t88 131t82 84q25 17 46 17q11 0 22 -5q30 -14 48 -86q0 -10 -32 -62t-80 -128t-106 -163t-110 -166t-91 -140t-49 -81l616 -644q10 -12 10 -34t-9 -42 t-25 -34q-12 -11 -30 -11q-5 0 -10 1q-100 74 -187 158t-165 169t-151 167t-145 152l-496 -608q-12 -4 -29 -7t-33 5t-28 31t-12 73l480 624z" />
<glyph unicode="y" horiz-adv-x="1276" d="M52 1122q-2 32 19 53t50 25t58 -10t45 -52q30 -64 81 -158t117 -196t144 -203t162 -182t170 -131t170 -50q0 130 -16 260t-34 259t-32 260q-11 102 -11 206q0 30 1 59q10 36 35 50q18 10 38 10q7 0 15 -1q28 -5 51 -26t29 -57q-1 -29 -1 -59q0 -96 10 -194 q13 -129 32 -275t39 -315t32 -373q-6 -100 -31 -205t-67 -204t-103 -187t-142 -155t-180 -106t-219 -41q-52 0 -105 13t-93 38t-58 64q-8 18 -8 38q0 25 12 55q110 -51 212 -51h11q107 3 198 48t164 122t125 171t78 197q24 96 24 185v14q-166 36 -322 147t-291 264t-241 334 t-168 359z" />
<glyph unicode="z" horiz-adv-x="1082" d="M39 1386q0 27 29 44q27 16 90 16h14q48 0 124 -7t163 -24t174 -45t158 -69t115 -96t44 -127q-14 -92 -54 -164t-96 -133t-125 -114t-139 -106t-136 -110t-120 -125q28 -56 98 -84t158 -40t184 -15t173 -8t124 -18t41 -45q-28 -44 -88 -69t-140 -36q-55 -8 -116 -8 q-28 0 -56 2q-92 5 -182 22t-172 46t-140 68t-87 85q-19 30 -19 63q0 18 6 37q30 72 85 135t122 119t140 110t140 110t121 118t84 136q0 40 -39 71t-99 54t-133 39t-142 25t-125 11q-28 1 -48 1t-32 -1q-42 32 -70 67q-29 36 -29 65z" />
<glyph unicode="{" horiz-adv-x="958" d="M34 1302q-38 140 4 255t125 197t187 128t190 50q38 14 68 5t42 -31t5 -52t-43 -60q-130 -22 -221 -76t-140 -125t-57 -151t29 -154t118 -135t211 -91q10 -6 15 -33t5 -56t-5 -50t-15 -17l-192 -104q18 -28 53 -44t75 -26t80 -13t70 -3q0 -4 4 -26t8 -47t6 -46t0 -27 q-108 -52 -150 -137t-32 -191q0 -80 41 -126t105 -78t140 -58t146 -66q18 -34 13 -59t-27 -37t-58 -10t-78 24q-90 36 -169 68t-138 74t-93 103t-34 157q0 56 6 114t28 110q2 6 11 25t20 41t21 41t12 23t-2 15t-4 15q-32 0 -78 13t-88 35t-71 51t-29 61q0 16 27 40t63 51 t70 53t48 44q-30 34 -85 71t-107 79t-91 88t-39 98z" />
<glyph unicode="|" horiz-adv-x="476" d="M148 1704q0 20 11 37t31 27t48 10t64 -18l52 -1760q-22 0 -45 -8t-44 -12t-39 1t-30 31q0 -16 0 36v152q0 100 -1 236t-3 286t-6 303t-9 287t-12 237t-17 155z" />
<glyph unicode="}" horiz-adv-x="992" d="M-68 -194q2 2 7 12t9 14q70 40 154 81t157 91t122 111t49 141q0 78 -36 153t-92 139q-4 4 -17 14t-27 20t-25 19t-13 13q-4 6 -7 18t-7 26t-6 27t-2 17h78q48 0 97 6t91 20t60 42l-222 182q-10 -4 -13 7t-1 28t9 34t17 23q90 26 163 78t120 120t65 145t-2 153t-80 144 t-168 118q-16 8 -45 13t-59 12t-52 19t-22 34q0 12 4 27t12 28t19 23t25 10q58 -2 127 -26t137 -65t128 -99t100 -131t54 -157t-12 -178q-42 -94 -96 -151t-104 -90t-86 -48t-42 -23q14 -18 54 -51t82 -68t74 -66t32 -47q0 -32 -32 -66t-77 -61t-94 -45t-81 -18 q22 -32 47 -57t45 -58t33 -81t13 -126q0 -72 -59 -161t-148 -168t-193 -132t-196 -53q-6 0 -17 6t-23 15t-20 19t-8 18v6z" />
<glyph unicode="~" horiz-adv-x="944" d="M56 726q80 130 144 179t117 48t95 -36t78 -77t69 -74t67 -24q44 16 65 37t31 44t15 47t17 46q14 14 37 21t44 5t35 -14t10 -38q-10 -96 -65 -166t-132 -93t-166 12t-163 147q-40 8 -66 0t-46 -29t-35 -51t-31 -66q-10 -12 -34 -12t-47 12t-37 33t-2 49z" />
<glyph unicode="&#xa1;" horiz-adv-x="1412" d="M1350.01 -53.8848q0 -39.998 -23.998 -57.9971q-23.999 -17.999 -61.9961 -13.999q-67.9961 59.9961 -148.991 90.9941t-169.99 44.998q-88.9941 13.999 -183.988 14.999q-94.9941 0.999023 -189.988 -2q-94.9941 -3 -187.988 -6q-92.9951 -3 -178.989 5 q-35.998 -4 -66.9961 1q-30.998 4.99902 -49.9971 21.998t-20.999 47.9971t21.999 78.9951q45.9971 55.9971 84.9951 108.994q38.9971 52.9961 77.9951 118.992q38.9971 65.9961 80.9951 152.991q41.9971 86.9941 90.9941 210.986q48.9971 123.993 109.993 294.982 t138.991 402.976l111.994 25.998q103.993 -225.986 177.988 -390.976q73.9961 -164.99 125.992 -292.982q51.9971 -127.992 87.9951 -227.986t63.9961 -196.988t52.9971 -198.987q24.998 -101.994 56.9961 -233.985zM1200.02 52.1084q0 7.99902 -6 40.9971t-15.999 78.9951 t-22.999 96.9941q-12.999 50.9971 -28.998 91.9951q-15.999 40.9971 -30.998 66.9951q-14.999 25.999 -30.998 19.999q-115.993 -37.998 -267.983 -19.999q-151.991 17.999 -347.979 67.9961q-45.9971 -7.99902 -76.9951 -57.9961t-58.9961 -111.993t-59.9961 -118.993 q-31.998 -56.9961 -79.9951 -78.9951q177.989 0 310.98 1q132.992 1 233.986 0q100.993 -1 172.989 -4q71.9951 -3 127.992 -11.999q55.9961 -8.99902 98.9941 -22.999q42.9971 -13.999 82.9951 -37.9971zM1036.03 578.076q0 45.9971 -11 98.9941 q-10.999 52.9961 -28.998 105.993t-39.9971 103.994q-21.999 50.9971 -43.9971 92.9941l-343.979 -131.992q-13.999 -5.99902 -26.998 -34.998q-12.999 -28.998 -21.999 -65.9961q-8.99902 -36.9971 -15.999 -72.9951q-6.99902 -35.998 -10.999 -53.9971 q21.998 -23.998 83.9941 -43.9971q61.9971 -19.999 141.992 -28.998q79.9951 -9 164.989 -3q84.9951 6 152.991 33.998zM868.037 1788q-13.999 -49.9961 -35.998 -81.9941q-21.998 -31.998 -47.9961 -42.998q-25.999 -10.999 -52.9971 4q-26.999 14.999 -52.9971 58.9961 q-4 41.998 16.999 73.9961t51.9971 44.9971t64.9961 1t55.9961 -57.9971zM836.039 1084.04q4 4 -1 21.999q-4.99902 17.999 -15.999 43.9971q-10.999 25.999 -29.998 56.9971t-44.9971 60.9961q-8 0 -25.998 -35.998q-17.999 -35.998 -37.998 -80.9951t-38.998 -87.9941 q-18.998 -42.998 -28.998 -58.9971q17.999 -9.99902 52.9971 -2.99902q34.998 6.99902 71.9951 20.998q36.998 13.999 65.9961 31.998t32.998 29.998z" />
<glyph unicode="&#xa3;" horiz-adv-x="1792" d="M66 846v8q16 24 67 32t113 10t120 -1t90 1q18 208 57 358t94 254t123 167t148 98t168 47t180 14q122 -6 213 -46t154 -104t99 -149t48 -183q0 -16 -7 -17t-27 -1q-44 -16 -62 -3t-30 42t-29 71t-59 86t-119 85t-211 69q-258 -4 -412 -198t-168 -598q6 2 56 -12t126 -29 t170 -26t190 -1q0 -18 -3 -41t-13 -43t-29 -34t-51 -14q-66 -4 -133 -4t-129 4t-115 13t-89 23q0 -60 2 -158t-2 -202t-17 -199t-43 -149q108 0 218 4t228 14t251 26t287 40q30 -42 20 -72t-35 -48t-52 -23t-29 3q-34 -4 -122 -11t-201 -16t-236 -19t-227 -21t-174 -21 t-76 -18q-42 20 -78 46t-42 70q96 30 138 107t53 184t3 234t-14 259q-18 2 -52 2t-77 1t-88 5t-81 14t-60 26t-24 44z" />
<glyph unicode="&#xa8;" horiz-adv-x="620" d="M53 1710q1 36 19 64t52 40t88 -6q36 -24 50 -61t8 -73t-30 -66t-66 -38q-40 -4 -68 17t-41 54t-12 69zM337 1710q1 36 19 64t52 40t88 -6q36 -24 50 -61t8 -73t-30 -66t-66 -38q-40 -4 -68 17t-41 54t-12 69z" />
<glyph unicode="&#xaa;" horiz-adv-x="1472" d="M44 518q-3 31 -3 64q0 57 9 116q14 94 45 184t80 170t113 139t142 90q65 26 139 26q14 0 29 -1q68 0 138 -31t130 -67t104 -67t56 -31q16 22 43 35t55 13t51 -16t29 -54q2 -74 2 -166t4 -192t16 -201t39 -193t71 -168t114 -126q5 -15 5 -26q0 -43 -63 -48q-46 0 -93 37 t-90 87t-79 103t-60 85q-58 -110 -156 -178t-212 -93q-66 -15 -134 -15q-48 0 -97 8q-117 18 -212 81t-155 171t-60 264zM203 671q-5 -44 -5 -88q0 -48 6 -95q12 -90 49 -162t100 -118t155 -50q132 0 248 54t194 162q34 66 45 148q6 41 5.5 82.5t-5.5 84.5q-11 85 -42 167 t-79 145t-112 101t-140 38q-15 1 -30 1q-71 0 -131 -31q-73 -38 -126 -104t-87 -154t-45 -181z" />
<glyph unicode="&#xad;" horiz-adv-x="1228" d="M136 640q-4 38 18 72t74 44l840 12q36 -16 57 -45t26 -61t-5 -63t-33 -50t-58 -20t-81 25l-726 -14q-50 2 -79 32t-33 68z" />
<glyph unicode="&#xaf;" horiz-adv-x="1148" d="M72 1679q-6 27 15 52t73 35l840 12q56 -22 75 -64t6 -76t-56 -45t-111 29l-726 -14q-50 2 -80 23t-36 48z" />
<glyph unicode="&#xb2;" horiz-adv-x="1358" d="M77 1302q-7 26 5 62q40 186 120 292t174 143t191 11t174 -104t120 -205t29 -289q-20 -240 -96 -487t-246 -511h12q50 -2 141 7t188 23t182 26t121 16q4 2 23 13t23 11q38 0 55 -22t13 -51t-27 -56t-65 -39l-1000 -142q-20 4 -30 14t-15 23t-5 28v27q0 32 34 62t78 58 t87 54t63 50q28 34 63 103t71 156t69 185t60 189t43 169t16 126q0 144 -36 239t-92 142t-123 46t-131 -47t-115 -135t-73 -221q-16 -18 -38 -19t-39 13t-24 40z" />
<glyph unicode="&#xb3;" horiz-adv-x="1220" d="M39 1654q-13 26 1 68q50 54 122 81t153 30t161 -17t146 -63t109 -108t49 -149q-6 -54 -42 -114t-84 -117t-100 -106t-88 -81q140 -72 274 -167t234 -202t152 -221t28 -224q-20 -88 -75 -144t-132 -87t-171 -40t-192 -3t-195 24t-181 40q-32 30 -42 57t-2 47t30 33t56 13 q118 -50 251 -72t243 -10t180 61t64 141q-6 84 -48 161t-107 145t-146 126t-166 105t-166 81t-145 56q-36 6 -49 30t-9 52t25 52t55 30q18 -10 52 8t74 52t82 77t75 86t55 78t22 53q-6 72 -54 119t-113 65t-132 3t-109 -65q-22 -20 -53 -25t-55 5t-37 36z" />
<glyph unicode="&#xb4;" horiz-adv-x="692" d="M178 1633q-6 33 19 63t70 57t94 53t93 52t66 54q58 4 79 -26t21 -82q-26 -24 -75 -57t-106 -68t-112 -67t-91 -52q-52 40 -58 73z" />
<glyph unicode="&#xb8;" horiz-adv-x="572" d="M93 -351q-1 25 12 46t45 17q98 14 146 30t60 31t-3 29t-43 23t-63 11t-59 -4q-22 -10 -37 7t-15 39v10l3 9q3 9 10 37t19 94q42 40 78 37t46 -53l-28 -80q48 8 103 -8t95 -45t55 -67t-14 -77t-113 -74t-242 -59q-24 -12 -39 5t-16 42z" />
<glyph unicode="&#xb9;" horiz-adv-x="500" d="M10 1756q30 56 56 69t70 -41l320 -1776q-8 -24 -26 -36t-38 -10t-38 14t-26 36q-44 140 -75 330t-63 416t-74 479t-106 519z" />
<glyph unicode="&#xba;" horiz-adv-x="1544" d="M42 658q0 156 49 282t138 216t212 141t273 55h24q158 0 286 -50q138 -54 237 -147t159 -214t76 -248q5 -42 5 -84q0 -84 -21 -167q-32 -124 -114 -222t-217 -161t-329 -69h-26q-131 0 -258 36q-140 40 -249 124t-177 212t-68 296zM206 634q0 -138 63 -230t158 -148 t204 -79q100 -21 186 -21h15q146 4 248 53t164 126t83 173q12 56 12 113q0 41 -6 82q-15 99 -66 193t-134 165t-198 112q-96 34 -211 34q-22 0 -46 -1q-92 -4 -177 -40t-151 -106t-105 -176t-39 -250z" />
<glyph unicode="&#xbc;" horiz-adv-x="2864" d="M1498 1050q0 34 21 97t54 137t73 151t76 140t63 103t35 40q12 0 33 -5t42 -14t37 -22t20 -31q-20 -32 -50 -84t-62 -114t-63 -126t-56 -117t-40 -89t-15 -42q198 -10 413 -26t419 -16q0 76 -7 178t-17 208t-22 204t-24 168q14 30 36 54t44 32t40 -6t24 -58l72 -784 q0 -2 27 -2h60h62h35q42 -46 5 -92t-165 -84q2 -114 14 -251t25 -259t22 -212t7 -112q-70 -40 -103 -22t-45 77t-12 152t-4 203t-18 228t-54 230q-74 12 -176 17t-213 7t-221 1t-200 -1q-30 0 -64 8t-62 25t-47 43t-19 66zM522 46q24 48 69 145t101 224t121 273t128 293 t120 285t100 247t66 179t19 82q24 54 58 65t61 -4t39 -49t-4 -70q-80 -202 -139 -351t-107 -271t-91 -231t-95 -230t-119 -267t-159 -342q-4 -16 -30 -24t-56 -7t-55 14t-27 39zM10 1756q30 56 56 69t70 -41l320 -1776q-8 -24 -26 -36t-38 -10t-38 14t-26 36 q-44 140 -75 330t-63 416t-74 479t-106 519z" />
<glyph unicode="&#xbd;" horiz-adv-x="2818" d="M1537 1302q-7 26 5 62q40 186 120 292t174 143t191 11t174 -104t120 -205t29 -289q-20 -240 -96 -487t-246 -511h12q50 -2 141 7t188 23t182 26t121 16q4 2 23 13t23 11q38 0 55 -22t13 -51t-27 -56t-65 -39l-1000 -142q-20 4 -30 14t-15 23t-5 28v27q0 32 34 62t78 58 t87 54t63 50q28 34 63 103t71 156t69 185t60 189t43 169t16 126q0 144 -36 239t-92 142t-123 46t-131 -47t-115 -135t-73 -221q-16 -18 -38 -19t-39 13t-24 40zM522 46q24 48 69 145t101 224t121 273t128 293t120 285t100 247t66 179t19 82q24 54 58 65t61 -4t39 -49t-4 -70 q-80 -202 -139 -351t-107 -271t-91 -231t-95 -230t-119 -267t-159 -342q-4 -16 -30 -24t-56 -7t-55 14t-27 39zM10 1756q30 56 56 69t70 -41l320 -1776q-8 -24 -26 -36t-38 -10t-38 14t-26 36q-44 140 -75 330t-63 416t-74 479t-106 519z" />
<glyph unicode="&#xbe;" horiz-adv-x="3584" d="M2218 1050q0 34 21 97t54 137t73 151t76 140t63 103t35 40q12 0 33 -5t42 -14t37 -22t20 -31q-20 -32 -50 -84t-62 -114t-63 -126t-56 -117t-40 -89t-15 -42q198 -10 413 -26t419 -16q0 76 -7 178t-17 208t-22 204t-24 168q14 30 36 54t44 32t40 -6t24 -58l72 -784 q0 -2 27 -2h60h62h35q42 -46 5 -92t-165 -84q2 -114 14 -251t25 -259t22 -212t7 -112q-70 -40 -103 -22t-45 77t-12 152t-4 203t-18 228t-54 230q-74 12 -176 17t-213 7t-221 1t-200 -1q-30 0 -64 8t-62 25t-47 43t-19 66zM1242 46q24 48 69 145t101 224t121 273t128 293 t120 285t100 247t66 179t19 82q24 54 58 65t61 -4t39 -49t-4 -70q-80 -202 -139 -351t-107 -271t-91 -231t-95 -230t-119 -267t-159 -342q-4 -16 -30 -24t-56 -7t-55 14t-27 39zM39 1654q-13 26 1 68q50 54 122 81t153 30t161 -17t146 -63t109 -108t49 -149q-6 -54 -42 -114 t-84 -117t-100 -106t-88 -81q140 -72 274 -167t234 -202t152 -221t28 -224q-20 -88 -75 -144t-132 -87t-171 -40t-192 -3t-195 24t-181 40q-32 30 -42 57t-2 47t30 33t56 13q118 -50 251 -72t243 -10t180 61t64 141q-6 84 -48 161t-107 145t-146 126t-166 105t-166 81 t-145 56q-36 6 -49 30t-9 52t25 52t55 30q18 -10 52 8t74 52t82 77t75 86t55 78t22 53q-6 72 -54 119t-113 65t-132 3t-109 -65q-22 -20 -53 -25t-55 5t-37 36z" />
<glyph unicode="&#xbf;" horiz-adv-x="1076" d="M984.001 130.103q-79.9951 -95.9941 -186.988 -127.992t-214.987 -14.999q-107.993 16.999 -204.987 77.9951t-157.99 151.99q-60.9961 90.9951 -72.9951 205.987q-12 114.993 49.9971 240.985q33.9971 55.9971 98.9932 112.993q64.9961 56.9971 123.993 109.993 q58.9961 52.9971 96.9941 101.994q37.9971 48.9971 17.999 88.9951q-23.999 79.9941 -41.998 121.992q-17.999 41.9971 -31.998 68.9961q-13.999 26.998 -20.999 48.9961q-6.99902 21.999 -6.99902 61.9971q0 31.998 29.998 38.9971q29.998 7 57.9961 7 q19.999 0 39.998 -28.998q19.999 -28.999 39.9971 -71.9961q19.999 -42.9971 37.998 -93.9941t30.998 -94.9941t20.999 -74.9951q7.99902 -30.999 7.99902 -34.998q0 -63.9961 -28.998 -113.993t-70.9951 -90.9941q-41.998 -40.998 -92.9951 -78.9961 q-50.9971 -37.9971 -92.9941 -79.9941q-41.9971 -41.998 -70.9951 -93.9951q-28.999 -51.9961 -28.999 -119.992q0 -77.9951 29.999 -135.992q29.998 -57.9961 78.9951 -96.9941q48.9971 -38.9971 114.992 -58.9961q65.9961 -19.999 137.992 -19.999q33.998 0 62.9961 12 q28.998 11.999 57.9961 26.998t56.9971 26.998q27.998 12 57.9961 12q37.998 0 55.9961 -25.999q17.999 -25.998 17.999 -57.9961zM532.029 1722q0 -39.9971 -21.999 -62.9961q-21.999 -22.998 -61.9961 -22.998q-41.9971 0 -76.9951 19.998q-34.998 19.999 -34.998 65.9961 t34.998 65.9961t76.9951 19.999q83.9951 0 83.9951 -85.9951z" />
<glyph unicode="&#xc0;" d="M14 -12q0 30 6 99t16 156t20 183t20 183t16 154t6 97q0 16 -8 26t-18 19t-18 20t-8 27q0 38 19 58t43 36t48 37t34 61q10 72 32 151t49 158t56 158t55 153q6 22 20 32t31 12h9q13 0 26 -4q18 -6 32 -18q128 -186 235 -408t209 -450t209 -445t239 -395q-2 -20 -24 -38 t-52 -28t-59 -11t-43 13q-100 192 -183 351t-143 275t-95 183t-41 75q-52 -15 -106 -15q-12 0 -24 1q-66 4 -129 5h-9q-58 0 -110 -12q-56 -13 -98 -63q-4 -8 -13 -69t-21 -147t-26 -184t-25 -184t-20 -147t-11 -69q-8 -16 -26 -23t-39 -10t-43 -3h-38zM310 1048 q18 -18 73 -25q38 -5 81 -5q18 0 37 1q63 3 119 13t80 24q-10 58 -38 130t-64 143t-75 135t-71 108q-28 -80 -50 -158t-39 -147t-30 -125t-23 -94zM216 2100q0 52 21 82t79 26q22 -28 66 -54t93 -52t94 -53t70 -57t19 -63t-58 -73q-36 20 -91 52t-112 67t-106 68t-75 57z " />
<glyph unicode="&#xc1;" d="M14 -12q0 30 6 99t16 156t20 183t20 183t16 154t6 97q0 16 -8 26t-18 19t-18 20t-8 27q0 38 19 58t43 36t48 37t34 61q10 72 32 151t49 158t56 158t55 153q6 22 20 32t31 12h9q13 0 26 -4q18 -6 32 -18q128 -186 235 -408t209 -450t209 -445t239 -395q-2 -20 -24 -38 t-52 -28t-59 -11t-43 13q-100 192 -183 351t-143 275t-95 183t-41 75q-52 -15 -106 -15q-12 0 -24 1q-66 4 -129 5h-9q-58 0 -110 -12q-56 -13 -98 -63q-4 -8 -13 -69t-21 -147t-26 -184t-25 -184t-20 -147t-11 -69q-8 -16 -26 -23t-39 -10t-43 -3h-38zM310 1048 q18 -18 73 -25q38 -5 81 -5q18 0 37 1q63 3 119 13t80 24q-10 58 -38 130t-64 143t-75 135t-71 108q-28 -80 -50 -158t-39 -147t-30 -125t-23 -94zM254 1921q-6 33 19 63t70 57t94 53t93 52t66 54q58 4 79 -26t21 -82q-26 -24 -75 -57t-106 -68t-112 -67t-91 -52 q-52 40 -58 73z" />
<glyph unicode="&#xc2;" d="M14 -12q0 30 6 99t16 156t20 183t20 183t16 154t6 97q0 16 -8 26t-18 19t-18 20t-8 27q0 38 19 58t43 36t48 37t34 61q10 72 32 151t49 158t56 158t55 153q6 22 20 32t31 12h9q13 0 26 -4q18 -6 32 -18q128 -186 235 -408t209 -450t209 -445t239 -395q-2 -20 -24 -38 t-52 -28t-59 -11t-43 13q-100 192 -183 351t-143 275t-95 183t-41 75q-52 -15 -106 -15q-12 0 -24 1q-66 4 -129 5h-9q-58 0 -110 -12q-56 -13 -98 -63q-4 -8 -13 -69t-21 -147t-26 -184t-25 -184t-20 -147t-11 -69q-8 -16 -26 -23t-39 -10t-43 -3h-38zM310 1048 q18 -18 73 -25q38 -5 81 -5q18 0 37 1q63 3 119 13t80 24q-10 58 -38 130t-64 143t-75 135t-71 108q-28 -80 -50 -158t-39 -147t-30 -125t-23 -94zM100 1875q-2 21 16 39q0 16 31 52t70 72t76 63t49 27q52 38 91 43t72 -14t64 -55t65 -79t76 -88t96 -81q-42 -58 -85 -65 t-83 16t-76 65t-63 82t-46 67t-23 21l-202 -196q-34 -24 -62 -22t-46 17t-20 36z" />
<glyph unicode="&#xc3;" d="M14 -12q0 30 6 99t16 156t20 183t20 183t16 154t6 97q0 16 -8 26t-18 19t-18 20t-8 27q0 38 19 58t43 36t48 37t34 61q10 72 32 151t49 158t56 158t55 153q6 22 20 32t31 12h9q13 0 26 -4q18 -6 32 -18q128 -186 235 -408t209 -450t209 -445t239 -395q-2 -20 -24 -38 t-52 -28t-59 -11t-43 13q-100 192 -183 351t-143 275t-95 183t-41 75q-52 -15 -106 -15q-12 0 -24 1q-66 4 -129 5h-9q-58 0 -110 -12q-56 -13 -98 -63q-4 -8 -13 -69t-21 -147t-26 -184t-25 -184t-20 -147t-11 -69q-8 -16 -26 -23t-39 -10t-43 -3h-38zM310 1048 q18 -18 73 -25q38 -5 81 -5q18 0 37 1q63 3 119 13t80 24q-10 58 -38 130t-64 143t-75 135t-71 108q-28 -80 -50 -158t-39 -147t-30 -125t-23 -94zM150 1908q80 130 144 179t117 48t95 -36t78 -77t69 -74t67 -24q44 16 65 37t31 44t15 47t17 46q14 14 37 21t44 5t35 -14 t10 -38q-10 -96 -65 -166t-132 -93t-166 12t-163 147q-40 8 -66 0t-46 -29t-35 -51t-31 -66q-10 -12 -34 -12t-47 12t-37 33t-2 49z" />
<glyph unicode="&#xc4;" d="M14 -12q0 30 6 99t16 156t20 183t20 183t16 154t6 97q0 16 -8 26t-18 19t-18 20t-8 27q0 38 19 58t43 36t48 37t34 61q10 72 32 151t49 158t56 158t55 153q6 22 20 32t31 12h9q13 0 26 -4q18 -6 32 -18q128 -186 235 -408t209 -450t209 -445t239 -395q-2 -20 -24 -38 t-52 -28t-59 -11t-43 13q-100 192 -183 351t-143 275t-95 183t-41 75q-52 -15 -106 -15q-12 0 -24 1q-66 4 -129 5h-9q-58 0 -110 -12q-56 -13 -98 -63q-4 -8 -13 -69t-21 -147t-26 -184t-25 -184t-20 -147t-11 -69q-8 -16 -26 -23t-39 -10t-43 -3h-38zM310 1048 q18 -18 73 -25q38 -5 81 -5q18 0 37 1q63 3 119 13t80 24q-10 58 -38 130t-64 143t-75 135t-71 108q-28 -80 -50 -158t-39 -147t-30 -125t-23 -94zM183 1998q1 36 19 64t52 40t88 -6q36 -24 50 -61t8 -73t-30 -66t-66 -38q-40 -4 -68 17t-41 54t-12 69zM467 1998q1 36 19 64 t52 40t88 -6q36 -24 50 -61t8 -73t-30 -66t-66 -38q-40 -4 -68 17t-41 54t-12 69z" />
<glyph unicode="&#xc5;" d="M14 -12q0 30 6 99t16 156t20 183t20 183t16 154t6 97q0 16 -8 26t-18 19t-18 20t-8 27q0 38 19 58t43 36t48 37t34 61q10 72 32 151t49 158t56 158t55 153q6 22 20 32t31 12h9q13 0 26 -4q18 -6 32 -18q128 -186 235 -408t209 -450t209 -445t239 -395q-2 -20 -24 -38 t-52 -28t-59 -11t-43 13q-100 192 -183 351t-143 275t-95 183t-41 75q-52 -15 -106 -15q-12 0 -24 1q-66 4 -129 5h-9q-58 0 -110 -12q-56 -13 -98 -63q-4 -8 -13 -69t-21 -147t-26 -184t-25 -184t-20 -147t-11 -69q-8 -16 -26 -23t-39 -10t-43 -3h-38zM310 1048 q18 -18 73 -25q38 -5 81 -5q18 0 37 1q63 3 119 13t80 24q-10 58 -38 130t-64 143t-75 135t-71 108q-28 -80 -50 -158t-39 -147t-30 -125t-23 -94zM256 1972q10 60 55 101t101 63t112 25t90 -11q-4 14 -6 27t-2 25q56 0 91 -17t54 -47t25 -72t6 -92q-8 -62 -50 -104t-99 -63 t-122 -22t-120 20t-93 62t-42 105zM401 1960q1 -20 33 -34t108 -14q42 8 63 27t29 44t5 54t-11 59q-32 0 -72 -14t-75 -34t-58 -44t-22 -44z" />
<glyph unicode="&#xc6;" horiz-adv-x="2822" d="M44 -36q12 30 43 98t73 155t88 184t87 184t72 154t41 97q6 16 2 26t-11 19t-11 20t2 27q14 38 40 58t56 36t62 37t56 63q38 72 88 151t105 159t113 159t112 153q28 44 67 44t59 -22l24 -84q136 68 299 95t322 22t300 -33t233 -66l-50 -90q-128 8 -264 15t-273 4t-273 -19 t-262 -54q-8 -74 3 -141t31 -133t47 -135t53 -145q102 -8 218 -7t235 9t234 20t211 28q18 -2 35 -12t30 -27t18 -37t-1 -40q-228 -52 -464 -88t-470 -40q0 -124 35 -241t104 -209t171 -148t234 -56q114 -10 209 27t173 117t141 198t115 272q8 16 30 23t46 0t45 -29t25 -64 q-66 -238 -166 -391t-220 -235t-252 -101t-261 15t-246 112t-208 188t-147 247t-62 285q-64 -18 -139 -3t-152 29t-151 12t-134 -54q-6 -8 -38 -69t-75 -147t-93 -185t-94 -185t-74 -147t-36 -69q-14 -14 -35 -21t-43 -10t-44 -4t-38 -1zM730 1026q12 -18 64 -24t115 -2 t123 14t88 24q12 58 10 130t-11 143t-25 135t-32 106q-58 -80 -108 -158t-92 -147t-75 -126t-57 -95z" />
<glyph unicode="&#xc7;" horiz-adv-x="1308" d="M38 986q0 158 60 309t162 268t239 188t291 71q30 0 86 -3t110 -16t95 -37t41 -66q0 -36 -21 -43t-53 -7q-100 46 -199 46t-190 -35t-172 -101t-142 -151t-101 -185t-50 -202q-4 -41 -4 -82q0 -116 34 -223q46 -145 131 -259t197 -191t229 -102q51 -11 101 -11 q64 0 125 18q109 32 187 136q14 26 35 19t35 -30q16 -27 16 -54q0 -24 -20 -35q-86 -116 -210 -161q-91 -33 -189 -33q-35 0 -71 4q-136 16 -270 91t-241 199t-174 296t-67 382zM615 -333q-1 25 12 46t45 17q98 14 146 30t60 31t-3 29t-43 23t-63 11t-59 -4q-22 -10 -37 7 t-15 39v10l3 9q3 9 10 37t19 94q42 40 78 37t46 -53l-28 -80q48 8 103 -8t95 -45t55 -67t-14 -77t-113 -74t-242 -59q-24 -12 -39 5t-16 42z" />
<glyph unicode="&#xc8;" horiz-adv-x="1704" d="M34 1602q86 76 196 122t231 68t246 25q25 1 50 1q98 0 190 -10q115 -12 215 -36t170 -54l-50 -90q-140 10 -290 17q-81 4 -162 4l-138 -3q-150 -6 -297 -30t-281 -74q-26 0 -53 13t-27 47zM150 1390q-7 21 -7 39q0 23 12 41q21 32 57 43q15 5 31 5q22 0 44 -9 q39 -15 57 -61v-428q91 -7 192 -7h26q116 1 235 9t234 20t211 28q18 -2 35 -12t30 -27t18 -37t-1 -40q-228 -52 -461 -73t-467 -25q0 -124 35 -252t104 -232t171 -171t234 -67q128 0 242 60t200 153t137 209t53 230q8 16 24 25t33 5t31 -24t18 -62v-23q0 -161 -52 -283 q-56 -130 -149 -217t-210 -136t-236 -63q-54 -6 -105 -6q-63 0 -122 9q-108 17 -184 61q-86 52 -154 139t-120 196t-90 234t-61 254t-34 256t-11 239zM554 2092q0 52 21 82t79 26q22 -28 66 -54t93 -52t94 -53t70 -57t19 -63t-58 -73q-36 20 -91 52t-112 67t-106 68t-75 57z " />
<glyph unicode="&#xc9;" horiz-adv-x="1704" d="M34 1602q86 76 196 122t231 68t246 25q25 1 50 1q98 0 190 -10q115 -12 215 -36t170 -54l-50 -90q-140 10 -290 17q-81 4 -162 4l-138 -3q-150 -6 -297 -30t-281 -74q-26 0 -53 13t-27 47zM150 1390q-7 21 -7 39q0 23 12 41q21 32 57 43q15 5 31 5q22 0 44 -9 q39 -15 57 -61v-428q91 -7 192 -7h26q116 1 235 9t234 20t211 28q18 -2 35 -12t30 -27t18 -37t-1 -40q-228 -52 -461 -73t-467 -25q0 -124 35 -252t104 -232t171 -171t234 -67q128 0 242 60t200 153t137 209t53 230q8 16 24 25t33 5t31 -24t18 -62v-23q0 -161 -52 -283 q-56 -130 -149 -217t-210 -136t-236 -63q-54 -6 -105 -6q-63 0 -122 9q-108 17 -184 61q-86 52 -154 139t-120 196t-90 234t-61 254t-34 256t-11 239zM542 1929q-6 33 19 63t70 57t94 53t93 52t66 54q58 4 79 -26t21 -82q-26 -24 -75 -57t-106 -68t-112 -67t-91 -52 q-52 40 -58 73z" />
<glyph unicode="&#xca;" horiz-adv-x="1704" d="M34 1602q86 76 196 122t231 68t246 25q25 1 50 1q98 0 190 -10q115 -12 215 -36t170 -54l-50 -90q-140 10 -290 17q-81 4 -162 4l-138 -3q-150 -6 -297 -30t-281 -74q-26 0 -53 13t-27 47zM150 1390q-7 21 -7 39q0 23 12 41q21 32 57 43q15 5 31 5q22 0 44 -9 q39 -15 57 -61v-428q91 -7 192 -7h26q116 1 235 9t234 20t211 28q18 -2 35 -12t30 -27t18 -37t-1 -40q-228 -52 -461 -73t-467 -25q0 -124 35 -252t104 -232t171 -171t234 -67q128 0 242 60t200 153t137 209t53 230q8 16 24 25t33 5t31 -24t18 -62v-23q0 -161 -52 -283 q-56 -130 -149 -217t-210 -136t-236 -63q-54 -6 -105 -6q-63 0 -122 9q-108 17 -184 61q-86 52 -154 139t-120 196t-90 234t-61 254t-34 256t-11 239zM516 1919q-2 21 16 39q0 16 31 52t70 72t76 63t49 27q52 38 91 43t72 -14t64 -55t65 -79t76 -88t96 -81q-42 -58 -85 -65 t-83 16t-76 65t-63 82t-46 67t-23 21l-202 -196q-34 -24 -62 -22t-46 17t-20 36z" />
<glyph unicode="&#xcb;" horiz-adv-x="1704" d="M34 1602q86 76 196 122t231 68t246 25q25 1 50 1q98 0 190 -10q115 -12 215 -36t170 -54l-50 -90q-140 10 -290 17q-81 4 -162 4l-138 -3q-150 -6 -297 -30t-281 -74q-26 0 -53 13t-27 47zM150 1390q-7 21 -7 39q0 23 12 41q21 32 57 43q15 5 31 5q22 0 44 -9 q39 -15 57 -61v-428q91 -7 192 -7h26q116 1 235 9t234 20t211 28q18 -2 35 -12t30 -27t18 -37t-1 -40q-228 -52 -461 -73t-467 -25q0 -124 35 -252t104 -232t171 -171t234 -67q128 0 242 60t200 153t137 209t53 230q8 16 24 25t33 5t31 -24t18 -62v-23q0 -161 -52 -283 q-56 -130 -149 -217t-210 -136t-236 -63q-54 -6 -105 -6q-63 0 -122 9q-108 17 -184 61q-86 52 -154 139t-120 196t-90 234t-61 254t-34 256t-11 239zM609 1998q1 36 19 64t52 40t88 -6q36 -24 50 -61t8 -73t-30 -66t-66 -38q-40 -4 -68 17t-41 54t-12 69zM893 1998 q1 36 19 64t52 40t88 -6q36 -24 50 -61t8 -73t-30 -66t-66 -38q-40 -4 -68 17t-41 54t-12 69z" />
<glyph unicode="&#xcc;" horiz-adv-x="572" d="M94 1407q-2 48 -2 91q0 64 4 118q4 68 20 107t36 53q12 8 24 8q9 0 17 -4q21 -10 39 -38q16 -198 34 -427t49 -461t82 -453t135 -403q-8 -28 -32 -40q-14 -7 -31 -7q-11 0 -22 3q-29 8 -60 36t-53 82q-40 110 -76 242t-64 274t-49 286t-34 279t-17 254zM-8 2092 q0 52 21 82t79 26q22 -28 66 -54t93 -52t94 -53t70 -57t19 -63t-58 -73q-36 20 -91 52t-112 67t-106 68t-75 57z" />
<glyph unicode="&#xcd;" horiz-adv-x="572" d="M94 1407q-2 48 -2 91q0 64 4 118q4 68 20 107t36 53q12 8 24 8q9 0 17 -4q21 -10 39 -38q16 -198 34 -427t49 -461t82 -453t135 -403q-8 -28 -32 -40q-14 -7 -31 -7q-11 0 -22 3q-29 8 -60 36t-53 82q-40 110 -76 242t-64 274t-49 286t-34 279t-17 254zM144 1921 q-6 33 19 63t70 57t94 53t93 52t66 54q58 4 79 -26t21 -82q-26 -24 -75 -57t-106 -68t-112 -67t-91 -52q-52 40 -58 73z" />
<glyph unicode="&#xce;" horiz-adv-x="572" d="M94 1407q-2 48 -2 91q0 64 4 118q4 68 20 107t36 53q12 8 24 8q9 0 17 -4q21 -10 39 -38q16 -198 34 -427t49 -461t82 -453t135 -403q-8 -28 -32 -40q-14 -7 -31 -7q-11 0 -22 3q-29 8 -60 36t-53 82q-40 110 -76 242t-64 274t-49 286t-34 279t-17 254zM-48 1919 q-2 21 16 39q0 16 31 52t70 72t76 63t49 27q52 38 91 43t72 -14t64 -55t65 -79t76 -88t96 -81q-42 -58 -85 -65t-83 16t-76 65t-63 82t-46 67t-23 21l-202 -196q-34 -24 -62 -22t-46 17t-20 36z" />
<glyph unicode="&#xcf;" horiz-adv-x="572" d="M94 1407q-2 48 -2 91q0 64 4 118q4 68 20 107t36 53q12 8 24 8q9 0 17 -4q21 -10 39 -38q16 -198 34 -427t49 -461t82 -453t135 -403q-8 -28 -32 -40q-14 -7 -31 -7q-11 0 -22 3q-29 8 -60 36t-53 82q-40 110 -76 242t-64 274t-49 286t-34 279t-17 254zM47 1998 q1 36 19 64t52 40t88 -6q36 -24 50 -61t8 -73t-30 -66t-66 -38q-40 -4 -68 17t-41 54t-12 69zM331 1998q1 36 19 64t52 40t88 -6q36 -24 50 -61t8 -73t-30 -66t-66 -38q-40 -4 -68 17t-41 54t-12 69z" />
<glyph unicode="&#xd0;" horiz-adv-x="1574" d="M-178 849q10 25 62 35l840 12q56 -22 86 -64t30 -75t-32 -44t-100 29l-726 -14q-50 2 -91 23t-60 47t-9 51zM36 1734q4 62 29 88t54 26t55 -21t34 -53q156 46 317 25t311 -94t280 -188t226 -254t148 -296t44 -313q-10 -188 -91 -317t-207 -213t-283 -128t-319 -60 q-38 6 -62 17t-40 29t-26 44t-18 62q148 -28 297 -5t274 94t214 189t117 282q20 116 -24 252t-131 265t-208 239t-256 177t-275 78t-264 -59q-2 -116 16 -262t46 -299t60 -301t60 -270t48 -205t22 -107q-4 -24 -17 -33t-31 -11t-40 2t-42 8q-68 206 -111 423t-75 427 t-62 405t-70 357z" />
<glyph unicode="&#xd1;" horiz-adv-x="2002" d="M24 1720q0 34 11 60t65 30q126 -106 254 -245t262 -292t273 -310t286 -300t303 -261t322 -194q-4 150 -35 342t-86 399t-132 416t-173 393q-10 24 -1 46t28 36t46 18q7 1 14 1q20 0 41 -9q124 -202 208 -410t138 -402t82 -366t38 -303q8 -109 8 -185v-29q-2 -83 -8 -99 q0 -44 -32 -59t-66 -15q-158 68 -313 172t-303 228t-285 261t-260 273t-229 262t-190 228q28 -80 53 -200t45 -256t35 -278t22 -269q6 -111 6 -203v-26q-1 -102 -11 -156q-18 -6 -50 -9t-62 2t-53 19t-25 44q18 110 19 247v18q0 129 -13 267q-14 148 -38 302t-56 299 t-68 277t-70 236zM598 1942q80 130 144 179t117 48t95 -36t78 -77t69 -74t67 -24q44 16 65 37t31 44t15 47t17 46q14 14 37 21t44 5t35 -14t10 -38q-10 -96 -65 -166t-132 -93t-166 12t-163 147q-40 8 -66 0t-46 -29t-35 -51t-31 -66q-10 -12 -34 -12t-47 12t-37 33t-2 49z " />
<glyph unicode="&#xd2;" horiz-adv-x="1810" d="M46 636q0 162 39 332t105 323t154 277t184 196t196 79q8 1 16 1q91 0 174 -76q96 -10 192 -83t186 -184t167 -250t135 -281t91 -274t33 -230q0 -146 -53 -238t-143 -143t-209 -70t-251 -19q-88 0 -198 16t-223 49t-220 84t-190 122t-134 163t-51 206zM236 642 q0 -84 40 -154t106 -126t151 -97t175 -68t178 -41t162 -14q92 0 183 12t161 48t114 102t44 172q0 96 -25 207t-69 226t-103 226t-125 207t-136 171t-138 117q0 -12 10 -31t17 -39t6 -36t-23 -20q-84 86 -160 111q-40 13 -77 13q-34 0 -66 -11q-67 -23 -125 -85t-105 -147 t-83 -185t-61 -201t-38 -194t-13 -163zM608 2092q0 52 21 82t79 26q22 -28 66 -54t93 -52t94 -53t70 -57t19 -63t-58 -73q-36 20 -91 52t-112 67t-106 68t-75 57z" />
<glyph unicode="&#xd3;" horiz-adv-x="1810" d="M46 636q0 162 39 332t105 323t154 277t184 196t196 79q8 1 16 1q91 0 174 -76q96 -10 192 -83t186 -184t167 -250t135 -281t91 -274t33 -230q0 -146 -53 -238t-143 -143t-209 -70t-251 -19q-88 0 -198 16t-223 49t-220 84t-190 122t-134 163t-51 206zM236 642 q0 -84 40 -154t106 -126t151 -97t175 -68t178 -41t162 -14q92 0 183 12t161 48t114 102t44 172q0 96 -25 207t-69 226t-103 226t-125 207t-136 171t-138 117q0 -12 10 -31t17 -39t6 -36t-23 -20q-84 86 -160 111q-40 13 -77 13q-34 0 -66 -11q-67 -23 -125 -85t-105 -147 t-83 -185t-61 -201t-38 -194t-13 -163zM518 1947q-6 33 19 63t70 57t94 53t93 52t66 54q58 4 79 -26t21 -82q-26 -24 -75 -57t-106 -68t-112 -67t-91 -52q-52 40 -58 73z" />
<glyph unicode="&#xd4;" horiz-adv-x="1810" d="M46 636q0 162 39 332t105 323t154 277t184 196t196 79q8 1 16 1q91 0 174 -76q96 -10 192 -83t186 -184t167 -250t135 -281t91 -274t33 -230q0 -146 -53 -238t-143 -143t-209 -70t-251 -19q-88 0 -198 16t-223 49t-220 84t-190 122t-134 163t-51 206zM236 642 q0 -84 40 -154t106 -126t151 -97t175 -68t178 -41t162 -14q92 0 183 12t161 48t114 102t44 172q0 96 -25 207t-69 226t-103 226t-125 207t-136 171t-138 117q0 -12 10 -31t17 -39t6 -36t-23 -20q-84 86 -160 111q-40 13 -77 13q-34 0 -66 -11q-67 -23 -125 -85t-105 -147 t-83 -185t-61 -201t-38 -194t-13 -163zM430 1929q-2 21 16 39q0 16 31 52t70 72t76 63t49 27q52 38 91 43t72 -14t64 -55t65 -79t76 -88t96 -81q-42 -58 -85 -65t-83 16t-76 65t-63 82t-46 67t-23 21l-202 -196q-34 -24 -62 -22t-46 17t-20 36z" />
<glyph unicode="&#xd5;" horiz-adv-x="1810" d="M46 636q0 162 39 332t105 323t154 277t184 196t196 79q8 1 16 1q91 0 174 -76q96 -10 192 -83t186 -184t167 -250t135 -281t91 -274t33 -230q0 -146 -53 -238t-143 -143t-209 -70t-251 -19q-88 0 -198 16t-223 49t-220 84t-190 122t-134 163t-51 206zM236 642 q0 -84 40 -154t106 -126t151 -97t175 -68t178 -41t162 -14q92 0 183 12t161 48t114 102t44 172q0 96 -25 207t-69 226t-103 226t-125 207t-136 171t-138 117q0 -12 10 -31t17 -39t6 -36t-23 -20q-84 86 -160 111q-40 13 -77 13q-34 0 -66 -11q-67 -23 -125 -85t-105 -147 t-83 -185t-61 -201t-38 -194t-13 -163zM408 1968q80 130 144 179t117 48t95 -36t78 -77t69 -74t67 -24q44 16 65 37t31 44t15 47t17 46q14 14 37 21t44 5t35 -14t10 -38q-10 -96 -65 -166t-132 -93t-166 12t-163 147q-40 8 -66 0t-46 -29t-35 -51t-31 -66q-10 -12 -34 -12 t-47 12t-37 33t-2 49z" />
<glyph unicode="&#xd6;" horiz-adv-x="1810" d="M46 636q0 162 39 332t105 323t154 277t184 196t196 79q8 1 16 1q91 0 174 -76q96 -10 192 -83t186 -184t167 -250t135 -281t91 -274t33 -230q0 -146 -53 -238t-143 -143t-209 -70t-251 -19q-88 0 -198 16t-223 49t-220 84t-190 122t-134 163t-51 206zM236 642 q0 -84 40 -154t106 -126t151 -97t175 -68t178 -41t162 -14q92 0 183 12t161 48t114 102t44 172q0 96 -25 207t-69 226t-103 226t-125 207t-136 171t-138 117q0 -12 10 -31t17 -39t6 -36t-23 -20q-84 86 -160 111q-40 13 -77 13q-34 0 -66 -11q-67 -23 -125 -85t-105 -147 t-83 -185t-61 -201t-38 -194t-13 -163zM507 2024q1 36 19 64t52 40t88 -6q36 -24 50 -61t8 -73t-30 -66t-66 -38q-40 -4 -68 17t-41 54t-12 69zM791 2024q1 36 19 64t52 40t88 -6q36 -24 50 -61t8 -73t-30 -66t-66 -38q-40 -4 -68 17t-41 54t-12 69z" />
<glyph unicode="&#xd8;" horiz-adv-x="1810" d="M46 636q0 162 39 332t105 323t154 277t184 196t196 79q8 1 16 1q91 0 174 -76q96 -10 192 -83t186 -184t167 -250t135 -281t91 -274t33 -230q0 -146 -53 -238t-143 -143t-209 -70t-251 -19q-88 0 -198 16t-223 49t-220 84t-190 122t-134 163t-51 206zM236 642 q0 -84 40 -154t106 -126t151 -97t175 -68t178 -41t162 -14q92 0 183 12t161 48t114 102t44 172q0 96 -25 207t-69 226t-103 226t-125 207t-136 171t-138 117q0 -12 10 -31t17 -39t6 -36t-23 -20q-84 86 -160 111q-40 13 -77 13q-34 0 -66 -11q-67 -23 -125 -85t-105 -147 t-83 -185t-61 -201t-38 -194t-13 -163zM444 46q24 48 69 145t101 224t121 273t128 293t120 285t100 247t66 179t19 82q24 54 58 65t61 -4t39 -49t-4 -70q-80 -202 -139 -351t-107 -271t-91 -231t-95 -230t-119 -267t-159 -342q-4 -16 -30 -24t-56 -7t-55 14t-27 39z" />
<glyph unicode="&#xd9;" horiz-adv-x="1656" d="M34 1704q2 40 27 72t56 44t62 -2t45 -66q0 -150 24 -325t76 -350t130 -336t186 -286t245 -199t305 -74q100 16 155 75t75 147q14 61 14 132q0 32 -3 66q-9 110 -36 230t-67 243t-83 236t-82 209t-63 162q-6 19 -6 38q0 18 5 37q11 39 35 62q22 21 51 21h5q32 -2 62 -46 q42 -100 93 -229t101 -272t92 -292t64 -290q19 -119 19 -228q0 -20 -1 -39q-4 -126 -47 -222t-129 -155t-230 -67h-10q-187 0 -346 76q-164 78 -297 211t-234 307t-168 364t-99 383q-27 163 -27 309q0 27 1 54zM384 2118q0 52 21 82t79 26q22 -28 66 -54t93 -52t94 -53 t70 -57t19 -63t-58 -73q-36 20 -91 52t-112 67t-106 68t-75 57z" />
<glyph unicode="&#xda;" horiz-adv-x="1656" d="M34 1704q2 40 27 72t56 44t62 -2t45 -66q0 -150 24 -325t76 -350t130 -336t186 -286t245 -199t305 -74q100 16 155 75t75 147q14 61 14 132q0 32 -3 66q-9 110 -36 230t-67 243t-83 236t-82 209t-63 162q-6 19 -6 38q0 18 5 37q11 39 35 62q22 21 51 21h5q32 -2 62 -46 q42 -100 93 -229t101 -272t92 -292t64 -290q19 -119 19 -228q0 -20 -1 -39q-4 -126 -47 -222t-129 -155t-230 -67h-10q-187 0 -346 76q-164 78 -297 211t-234 307t-168 364t-99 383q-27 163 -27 309q0 27 1 54zM476 1973q-6 33 19 63t70 57t94 53t93 52t66 54q58 4 79 -26 t21 -82q-26 -24 -75 -57t-106 -68t-112 -67t-91 -52q-52 40 -58 73z" />
<glyph unicode="&#xdb;" horiz-adv-x="1656" d="M34 1704q2 40 27 72t56 44t62 -2t45 -66q0 -150 24 -325t76 -350t130 -336t186 -286t245 -199t305 -74q100 16 155 75t75 147q14 61 14 132q0 32 -3 66q-9 110 -36 230t-67 243t-83 236t-82 209t-63 162q-6 19 -6 38q0 18 5 37q11 39 35 62q22 21 51 21h5q32 -2 62 -46 q42 -100 93 -229t101 -272t92 -292t64 -290q19 -119 19 -228q0 -20 -1 -39q-4 -126 -47 -222t-129 -155t-230 -67h-10q-187 0 -346 76q-164 78 -297 211t-234 307t-168 364t-99 383q-27 163 -27 309q0 27 1 54zM362 1961q-2 21 16 39q0 16 31 52t70 72t76 63t49 27 q52 38 91 43t72 -14t64 -55t65 -79t76 -88t96 -81q-42 -58 -85 -65t-83 16t-76 65t-63 82t-46 67t-23 21l-202 -196q-34 -24 -62 -22t-46 17t-20 36z" />
<glyph unicode="&#xdc;" horiz-adv-x="1656" d="M34 1704q2 40 27 72t56 44t62 -2t45 -66q0 -150 24 -325t76 -350t130 -336t186 -286t245 -199t305 -74q100 16 155 75t75 147q14 61 14 132q0 32 -3 66q-9 110 -36 230t-67 243t-83 236t-82 209t-63 162q-6 19 -6 38q0 18 5 37q11 39 35 62q22 21 51 21h5q32 -2 62 -46 q42 -100 93 -229t101 -272t92 -292t64 -290q19 -119 19 -228q0 -20 -1 -39q-4 -126 -47 -222t-129 -155t-230 -67h-10q-187 0 -346 76q-164 78 -297 211t-234 307t-168 364t-99 383q-27 163 -27 309q0 27 1 54zM429 2016q1 36 19 64t52 40t88 -6q36 -24 50 -61t8 -73 t-30 -66t-66 -38q-40 -4 -68 17t-41 54t-12 69zM713 2016q1 36 19 64t52 40t88 -6q36 -24 50 -61t8 -73t-30 -66t-66 -38q-40 -4 -68 17t-41 54t-12 69z" />
<glyph unicode="&#xdd;" horiz-adv-x="1406" d="M10 1728q0 52 21 81t79 29q196 -322 445 -557t553 -397q24 104 27 212q1 29 1 59q0 79 -6 158q-8 109 -22 216t-24 211q-4 16 -4 31q0 21 7 42q13 37 38 61t56 31q7 2 14 2q23 0 41 -19q8 -108 15 -177t13 -124t11 -111t9 -137t7 -200t7 -303q30 -10 48 -43t18 -68 t-22 -62t-72 -27q-30 -146 -81 -293t-135 -266t-208 -193t-298 -74q-82 0 -150 31t-117 85t-76 125t-27 153q-3 19 -3 37q0 15 2 31q5 34 19 59t36 35t52 -6q18 -190 85 -281t157 -104q17 -2 34 -2q75 0 156 45q100 56 184 158t138 242t54 296q-68 0 -174 62t-226 159 t-242 216t-219 232t-159 206t-62 139zM558 1921q-6 33 19 63t70 57t94 53t93 52t66 54q58 4 79 -26t21 -82q-26 -24 -75 -57t-106 -68t-112 -67t-91 -52q-52 40 -58 73z" />
<glyph unicode="&#xde;" horiz-adv-x="1336" d="M86 1324q0 54 18 88t68 34q28 0 47 -8t33 -42l68 -684q6 78 33 155t81 138t136 100t196 39q62 0 135 -36t143 -99t129 -149t92 -187t33 -212t-46 -223q-28 -68 -75 -113t-102 -71t-116 -38t-119 -15t-108 -2t-84 1q-80 -2 -114 41t-42 123q16 -10 74 -18t126 -11t131 -1 t89 14q88 20 140 68t74 115t17 144t-30 154t-67 146t-94 119t-111 73t-119 9q-108 -28 -175 -124t-100 -230t-37 -287t12 -294t50 -253t76 -160q8 -22 5 -46t-17 -38t-40 -14t-64 26q-48 78 -83 207t-64 287t-52 332t-45 344t-47 325t-55 273z" />
<glyph unicode="&#xdf;" horiz-adv-x="1368" d="M21 1486q1 122 33 202t106 102q108 16 243 -4t260 -73t223 -136t132 -191q18 -54 -4 -115t-62 -120t-88 -109t-84 -84q66 -24 162 -81t183 -134t149 -166t62 -179q0 -100 -48 -175t-124 -125t-168 -76t-182 -26q-28 0 -66 5t-73 20t-60 40t-25 65q34 0 90 4t121 16 t131 32t119 50t87 73t34 101q-14 84 -74 156t-145 125t-182 83t-187 30l-40 188q136 38 219 131t93 237q2 46 -32 90t-91 81t-130 66t-145 43t-137 12t-107 -24q-30 -30 -29 -129t25 -247t69 -336t103 -397t127 -428t143 -431q-6 -30 -36 -46t-65 -14t-63 20t-30 56 q-26 98 -69 238t-91 301t-98 335t-90 343t-65 324t-24 277z" />
<glyph unicode="&#xe0;" horiz-adv-x="1472" d="M44 518q-3 31 -3 64q0 57 9 116q14 94 45 184t80 170t113 139t142 90q65 26 139 26q14 0 29 -1q68 0 138 -31t130 -67t104 -67t56 -31q16 22 43 35t55 13t51 -16t29 -54q2 -74 2 -166t4 -192t16 -201t39 -193t71 -168t114 -126q5 -15 5 -26q0 -43 -63 -48q-46 0 -93 37 t-90 87t-79 103t-60 85q-58 -110 -156 -178t-212 -93q-66 -15 -134 -15q-48 0 -97 8q-117 18 -212 81t-155 171t-60 264zM203 671q-5 -44 -5 -88q0 -48 6 -95q12 -90 49 -162t100 -118t155 -50q132 0 248 54t194 162q34 66 45 148q6 41 5.5 82.5t-5.5 84.5q-11 85 -42 167 t-79 145t-112 101t-140 38q-15 1 -30 1q-71 0 -131 -31q-73 -38 -126 -104t-87 -154t-45 -181zM438 1804q0 52 21 82t79 26q22 -28 66 -54t93 -52t94 -53t70 -57t19 -63t-58 -73q-36 20 -91 52t-112 67t-106 68t-75 57z" />
<glyph unicode="&#xe1;" horiz-adv-x="1472" d="M44 518q-3 31 -3 64q0 57 9 116q14 94 45 184t80 170t113 139t142 90q65 26 139 26q14 0 29 -1q68 0 138 -31t130 -67t104 -67t56 -31q16 22 43 35t55 13t51 -16t29 -54q2 -74 2 -166t4 -192t16 -201t39 -193t71 -168t114 -126q5 -15 5 -26q0 -43 -63 -48q-46 0 -93 37 t-90 87t-79 103t-60 85q-58 -110 -156 -178t-212 -93q-66 -15 -134 -15q-48 0 -97 8q-117 18 -212 81t-155 171t-60 264zM203 671q-5 -44 -5 -88q0 -48 6 -95q12 -90 49 -162t100 -118t155 -50q132 0 248 54t194 162q34 66 45 148q6 41 5.5 82.5t-5.5 84.5q-11 85 -42 167 t-79 145t-112 101t-140 38q-15 1 -30 1q-71 0 -131 -31q-73 -38 -126 -104t-87 -154t-45 -181zM590 1633q-6 33 19 63t70 57t94 53t93 52t66 54q58 4 79 -26t21 -82q-26 -24 -75 -57t-106 -68t-112 -67t-91 -52q-52 40 -58 73z" />
<glyph unicode="&#xe2;" horiz-adv-x="1472" d="M44 518q-3 31 -3 64q0 57 9 116q14 94 45 184t80 170t113 139t142 90q65 26 139 26q14 0 29 -1q68 0 138 -31t130 -67t104 -67t56 -31q16 22 43 35t55 13t51 -16t29 -54q2 -74 2 -166t4 -192t16 -201t39 -193t71 -168t114 -126q5 -15 5 -26q0 -43 -63 -48q-46 0 -93 37 t-90 87t-79 103t-60 85q-58 -110 -156 -178t-212 -93q-66 -15 -134 -15q-48 0 -97 8q-117 18 -212 81t-155 171t-60 264zM203 671q-5 -44 -5 -88q0 -48 6 -95q12 -90 49 -162t100 -118t155 -50q132 0 248 54t194 162q34 66 45 148q6 41 5.5 82.5t-5.5 84.5q-11 85 -42 167 t-79 145t-112 101t-140 38q-15 1 -30 1q-71 0 -131 -31q-73 -38 -126 -104t-87 -154t-45 -181zM400 1631q-2 21 16 39q0 16 31 52t70 72t76 63t49 27q52 38 91 43t72 -14t64 -55t65 -79t76 -88t96 -81q-42 -58 -85 -65t-83 16t-76 65t-63 82t-46 67t-23 21l-202 -196 q-34 -24 -62 -22t-46 17t-20 36z" />
<glyph unicode="&#xe3;" horiz-adv-x="1472" d="M44 518q-3 31 -3 64q0 57 9 116q14 94 45 184t80 170t113 139t142 90q65 26 139 26q14 0 29 -1q68 0 138 -31t130 -67t104 -67t56 -31q16 22 43 35t55 13t51 -16t29 -54q2 -74 2 -166t4 -192t16 -201t39 -193t71 -168t114 -126q5 -15 5 -26q0 -43 -63 -48q-46 0 -93 37 t-90 87t-79 103t-60 85q-58 -110 -156 -178t-212 -93q-66 -15 -134 -15q-48 0 -97 8q-117 18 -212 81t-155 171t-60 264zM203 671q-5 -44 -5 -88q0 -48 6 -95q12 -90 49 -162t100 -118t155 -50q132 0 248 54t194 162q34 66 45 148q6 41 5.5 82.5t-5.5 84.5q-11 85 -42 167 t-79 145t-112 101t-140 38q-15 1 -30 1q-71 0 -131 -31q-73 -38 -126 -104t-87 -154t-45 -181zM332 1654q80 130 144 179t117 48t95 -36t78 -77t69 -74t67 -24q44 16 65 37t31 44t15 47t17 46q14 14 37 21t44 5t35 -14t10 -38q-10 -96 -65 -166t-132 -93t-166 12t-163 147 q-40 8 -66 0t-46 -29t-35 -51t-31 -66q-10 -12 -34 -12t-47 12t-37 33t-2 49z" />
<glyph unicode="&#xe4;" horiz-adv-x="1472" d="M44 518q-3 31 -3 64q0 57 9 116q14 94 45 184t80 170t113 139t142 90q65 26 139 26q14 0 29 -1q68 0 138 -31t130 -67t104 -67t56 -31q16 22 43 35t55 13t51 -16t29 -54q2 -74 2 -166t4 -192t16 -201t39 -193t71 -168t114 -126q5 -15 5 -26q0 -43 -63 -48q-46 0 -93 37 t-90 87t-79 103t-60 85q-58 -110 -156 -178t-212 -93q-66 -15 -134 -15q-48 0 -97 8q-117 18 -212 81t-155 171t-60 264zM203 671q-5 -44 -5 -88q0 -48 6 -95q12 -90 49 -162t100 -118t155 -50q132 0 248 54t194 162q34 66 45 148q6 41 5.5 82.5t-5.5 84.5q-11 85 -42 167 t-79 145t-112 101t-140 38q-15 1 -30 1q-71 0 -131 -31q-73 -38 -126 -104t-87 -154t-45 -181zM493 1710q1 36 19 64t52 40t88 -6q36 -24 50 -61t8 -73t-30 -66t-66 -38q-40 -4 -68 17t-41 54t-12 69zM777 1710q1 36 19 64t52 40t88 -6q36 -24 50 -61t8 -73t-30 -66t-66 -38 q-40 -4 -68 17t-41 54t-12 69z" />
<glyph unicode="&#xe5;" horiz-adv-x="1472" d="M44 518q-3 31 -3 64q0 57 9 116q14 94 45 184t80 170t113 139t142 90q65 26 139 26q14 0 29 -1q68 0 138 -31t130 -67t104 -67t56 -31q16 22 43 35t55 13t51 -16t29 -54q2 -74 2 -166t4 -192t16 -201t39 -193t71 -168t114 -126q5 -15 5 -26q0 -43 -63 -48q-46 0 -93 37 t-90 87t-79 103t-60 85q-58 -110 -156 -178t-212 -93q-66 -15 -134 -15q-48 0 -97 8q-117 18 -212 81t-155 171t-60 264zM203 671q-5 -44 -5 -88q0 -48 6 -95q12 -90 49 -162t100 -118t155 -50q132 0 248 54t194 162q34 66 45 148q6 41 5.5 82.5t-5.5 84.5q-11 85 -42 167 t-79 145t-112 101t-140 38q-15 1 -30 1q-71 0 -131 -31q-73 -38 -126 -104t-87 -154t-45 -181zM480 1746q10 60 55 101t101 63t112 25t90 -11q-4 14 -6 27t-2 25q56 0 91 -17t54 -47t25 -72t6 -92q-8 -62 -50 -104t-99 -63t-122 -22t-120 20t-93 62t-42 105zM625 1734 q1 -20 33 -34t108 -14q42 8 63 27t29 44t5 54t-11 59q-32 0 -72 -14t-75 -34t-58 -44t-22 -44z" />
<glyph unicode="&#xe6;" horiz-adv-x="2338" d="M48 610q-8 86 6 180t45 184t80 170t113 139t142 90t168 25q56 0 114 -22t111 -51t97 -59t72 -48v-10q90 90 209 141t259 49q94 0 184 -30t161 -87t115 -140t44 -187q2 -102 -42 -179t-116 -136t-164 -101t-188 -73t-186 -53t-158 -40q78 -96 172 -148t195 -68t208 -2 t211 49t202 86t182 109q34 -76 -38 -171t-262 -175q-124 -52 -261 -60t-270 22t-252 95t-205 161v-8q-74 -78 -172 -122t-204 -52t-208 20t-183 93t-131 167t-50 242zM207 763q-11 -93 1 -183t49 -162t100 -118t155 -50q108 0 203 35t171 105q-28 12 -56 19t-51 19t-38 36 t-15 68h25q17 0 34 3t29 12t12 27q-38 132 -19 261t83 237q-48 72 -115 116t-149 44q-88 8 -161 -30t-126 -104t-87 -154t-45 -181zM965 740q1 -56 18 -115t57 -111q58 8 140 22t169 36t172 56t153 82t110 114t42 154q0 66 -30 117t-78 87t-107 54t-117 18q-84 6 -162 -19 t-144 -70t-115 -109t-77 -136q-12 -30 -22 -77t-9 -103z" />
<glyph unicode="&#xe7;" horiz-adv-x="1324" d="M64 606q4 120 56 230t135 203t189 161t218 102q93 28 183 28q19 0 37 -1q108 -7 198 -63q14 -28 12 -49t-15 -35t-34 -19t-43 1q-44 16 -96 16q-26 0 -54 -4q-84 -12 -172 -50t-172 -98t-152 -133t-110 -152t-46 -157q-1 -11 -1 -22q0 -100 49 -173q54 -81 144 -129 t204 -62q51 -6 103 -6l125 9q114 17 216 67t170 132q19 10 34 10q16 0 29 -11q25 -21 25 -61q-78 -132 -201 -212t-262 -108q-76 -15 -153 -15q-63 0 -126 10q-140 23 -251 96t-178 197q-61 114 -61 270v28zM331 -351q-1 25 12 46t45 17q98 14 146 30t60 31t-3 29t-43 23 t-63 11t-59 -4q-22 -10 -37 7t-15 39v10l3 9q3 9 10 37t19 94q42 40 78 37t46 -53l-28 -80q48 8 103 -8t95 -45t55 -67t-14 -77t-113 -74t-242 -59q-24 -12 -39 5t-16 42z" />
<glyph unicode="&#xe8;" horiz-adv-x="1620" d="M4 552h25q17 0 34 3t29 12t12 27q-24 87 -24 173q0 67 15 132q33 149 123 265t226 186q132 68 289 68h9q94 0 184 -30t161 -87t115 -140t44 -187q0 -102 -43 -179t-115 -136t-164 -101t-188 -73t-186 -53t-158 -40q78 -96 172 -148t195 -68q54 -9 109 -9q49 0 99 7 q107 14 211 49t202 86t182 109q11 -24 11 -51q0 -56 -49 -120q-72 -95 -262 -175q-138 -58 -294 -61h-20q-145 0 -281 40q-145 43 -269 130t-200 211q-30 20 -64 29t-63 21t-48 35t-19 75zM248 701q14 -87 70 -167q58 8 140 22t169 36t173 56t153 82t109 114t42 154 q0 66 -30 117t-78 87t-107 54t-117 18q-16 1 -31 1q-77 0 -149 -25q-86 -30 -155 -86t-117 -132t-67 -160q-11 -48 -11 -98q0 -36 6 -73zM512 1804q0 52 21 82t79 26q22 -28 66 -54t93 -52t94 -53t70 -57t19 -63t-58 -73q-36 20 -91 52t-112 67t-106 68t-75 57z" />
<glyph unicode="&#xe9;" horiz-adv-x="1620" d="M4 552h25q17 0 34 3t29 12t12 27q-24 87 -24 173q0 67 15 132q33 149 123 265t226 186q132 68 289 68h9q94 0 184 -30t161 -87t115 -140t44 -187q0 -102 -43 -179t-115 -136t-164 -101t-188 -73t-186 -53t-158 -40q78 -96 172 -148t195 -68q54 -9 109 -9q49 0 99 7 q107 14 211 49t202 86t182 109q11 -24 11 -51q0 -56 -49 -120q-72 -95 -262 -175q-138 -58 -294 -61h-20q-145 0 -281 40q-145 43 -269 130t-200 211q-30 20 -64 29t-63 21t-48 35t-19 75zM248 701q14 -87 70 -167q58 8 140 22t169 36t173 56t153 82t109 114t42 154 q0 66 -30 117t-78 87t-107 54t-117 18q-16 1 -31 1q-77 0 -149 -25q-86 -30 -155 -86t-117 -132t-67 -160q-11 -48 -11 -98q0 -36 6 -73zM664 1633q-6 33 19 63t70 57t94 53t93 52t66 54q58 4 79 -26t21 -82q-26 -24 -75 -57t-106 -68t-112 -67t-91 -52q-52 40 -58 73z" />
<glyph unicode="&#xea;" horiz-adv-x="1620" d="M4 552h25q17 0 34 3t29 12t12 27q-24 87 -24 173q0 67 15 132q33 149 123 265t226 186q132 68 289 68h9q94 0 184 -30t161 -87t115 -140t44 -187q0 -102 -43 -179t-115 -136t-164 -101t-188 -73t-186 -53t-158 -40q78 -96 172 -148t195 -68q54 -9 109 -9q49 0 99 7 q107 14 211 49t202 86t182 109q11 -24 11 -51q0 -56 -49 -120q-72 -95 -262 -175q-138 -58 -294 -61h-20q-145 0 -281 40q-145 43 -269 130t-200 211q-30 20 -64 29t-63 21t-48 35t-19 75zM248 701q14 -87 70 -167q58 8 140 22t169 36t173 56t153 82t109 114t42 154 q0 66 -30 117t-78 87t-107 54t-117 18q-16 1 -31 1q-77 0 -149 -25q-86 -30 -155 -86t-117 -132t-67 -160q-11 -48 -11 -98q0 -36 6 -73zM474 1631q-2 21 16 39q0 16 31 52t70 72t76 63t49 27q52 38 91 43t72 -14t64 -55t65 -79t76 -88t96 -81q-42 -58 -85 -65t-83 16 t-76 65t-63 82t-46 67t-23 21l-202 -196q-34 -24 -62 -22t-46 17t-20 36z" />
<glyph unicode="&#xeb;" horiz-adv-x="1620" d="M4 552h25q17 0 34 3t29 12t12 27q-24 87 -24 173q0 67 15 132q33 149 123 265t226 186q132 68 289 68h9q94 0 184 -30t161 -87t115 -140t44 -187q0 -102 -43 -179t-115 -136t-164 -101t-188 -73t-186 -53t-158 -40q78 -96 172 -148t195 -68q54 -9 109 -9q49 0 99 7 q107 14 211 49t202 86t182 109q11 -24 11 -51q0 -56 -49 -120q-72 -95 -262 -175q-138 -58 -294 -61h-20q-145 0 -281 40q-145 43 -269 130t-200 211q-30 20 -64 29t-63 21t-48 35t-19 75zM248 701q14 -87 70 -167q58 8 140 22t169 36t173 56t153 82t109 114t42 154 q0 66 -30 117t-78 87t-107 54t-117 18q-16 1 -31 1q-77 0 -149 -25q-86 -30 -155 -86t-117 -132t-67 -160q-11 -48 -11 -98q0 -36 6 -73zM567 1710q1 36 19 64t52 40t88 -6q36 -24 50 -61t8 -73t-30 -66t-66 -38q-40 -4 -68 17t-41 54t-12 69zM851 1710q1 36 19 64t52 40 t88 -6q36 -24 50 -61t8 -73t-30 -66t-66 -38q-40 -4 -68 17t-41 54t-12 69z" />
<glyph unicode="&#xec;" horiz-adv-x="530" d="M92 1276q6 26 25 38t48 6t59 -34l262 -1148q8 -34 10 -64t-7 -51t-32 -29t-67 2l-292 1216q-12 38 -6 64zM-30 1804q0 52 21 82t79 26q22 -28 66 -54t93 -52t94 -53t70 -57t19 -63t-58 -73q-36 20 -91 52t-112 67t-106 68t-75 57z" />
<glyph unicode="&#xed;" horiz-adv-x="530" d="M92 1276q6 26 25 38t48 6t59 -34l262 -1148q8 -34 10 -64t-7 -51t-32 -29t-67 2l-292 1216q-12 38 -6 64zM122 1633q-6 33 19 63t70 57t94 53t93 52t66 54q58 4 79 -26t21 -82q-26 -24 -75 -57t-106 -68t-112 -67t-91 -52q-52 40 -58 73z" />
<glyph unicode="&#xee;" horiz-adv-x="530" d="M92 1276q6 26 25 38t48 6t59 -34l262 -1148q8 -34 10 -64t-7 -51t-32 -29t-67 2l-292 1216q-12 38 -6 64zM-68 1631q-2 21 16 39q0 16 31 52t70 72t76 63t49 27q52 38 91 43t72 -14t64 -55t65 -79t76 -88t96 -81q-42 -58 -85 -65t-83 16t-76 65t-63 82t-46 67t-23 21 l-202 -196q-34 -24 -62 -22t-46 17t-20 36z" />
<glyph unicode="&#xef;" horiz-adv-x="530" d="M92 1276q6 26 25 38t48 6t59 -34l262 -1148q8 -34 10 -64t-7 -51t-32 -29t-67 2l-292 1216q-12 38 -6 64zM-131 1694q1 36 19 64t52 40t88 -6q36 -24 50 -61t8 -73t-30 -66t-66 -38q-40 -4 -68 17t-41 54t-12 69zM153 1694q1 36 19 64t52 40t88 -6q36 -24 50 -61t8 -73 t-30 -66t-66 -38q-40 -4 -68 17t-41 54t-12 69z" />
<glyph unicode="&#xf1;" horiz-adv-x="1678" d="M42 1196q0 52 38 69q20 9 41 9q20 0 43 -8l182 -626q4 72 19 154t43 162t71 154t103 131t139 92t181 37q8 1 17 1q87 0 171 -57q92 -62 173 -168t149 -243t117 -283t78 -287t31 -255q-4 -36 -27 -48t-49 -8t-44 20t-12 36q-4 84 -31 202t-71 245t-102 252t-124 226 t-138 165t-142 70q-104 -18 -183 -92t-134 -180t-87 -231t-44 -248q-8 -78 -8 -150q0 -42 3 -83q7 -110 29 -182q2 -13 2 -24q0 -25 -12 -39q-18 -21 -45 -26q-10 -2 -21 -2q-17 0 -35 5q-29 8 -41 24q-40 168 -68 316t-56 289t-64 283t-92 298zM436 1654q80 130 144 179 t117 48t95 -36t78 -77t69 -74t67 -24q44 16 65 37t31 44t15 47t17 46q14 14 37 21t44 5t35 -14t10 -38q-10 -96 -65 -166t-132 -93t-166 12t-163 147q-40 8 -66 0t-46 -29t-35 -51t-31 -66q-10 -12 -34 -12t-47 12t-37 33t-2 49z" />
<glyph unicode="&#xf2;" horiz-adv-x="1544" d="M42 658q0 156 49 282t138 216t212 141t273 55h24q158 0 286 -50q138 -54 237 -147t159 -214t76 -248q5 -42 5 -84q0 -84 -21 -167q-32 -124 -114 -222t-217 -161t-329 -69h-26q-131 0 -258 36q-140 40 -249 124t-177 212t-68 296zM206 634q0 -138 63 -230t158 -148 t204 -79q100 -21 186 -21h15q146 4 248 53t164 126t83 173q12 56 12 113q0 41 -6 82q-15 99 -66 193t-134 165t-198 112q-96 34 -211 34q-22 0 -46 -1q-92 -4 -177 -40t-151 -106t-105 -176t-39 -250zM474 1804q0 52 21 82t79 26q22 -28 66 -54t93 -52t94 -53t70 -57t19 -63 t-58 -73q-36 20 -91 52t-112 67t-106 68t-75 57z" />
<glyph unicode="&#xf3;" horiz-adv-x="1544" d="M42 658q0 156 49 282t138 216t212 141t273 55h24q158 0 286 -50q138 -54 237 -147t159 -214t76 -248q5 -42 5 -84q0 -84 -21 -167q-32 -124 -114 -222t-217 -161t-329 -69h-26q-131 0 -258 36q-140 40 -249 124t-177 212t-68 296zM206 634q0 -138 63 -230t158 -148 t204 -79q100 -21 186 -21h15q146 4 248 53t164 126t83 173q12 56 12 113q0 41 -6 82q-15 99 -66 193t-134 165t-198 112q-96 34 -211 34q-22 0 -46 -1q-92 -4 -177 -40t-151 -106t-105 -176t-39 -250zM626 1633q-6 33 19 63t70 57t94 53t93 52t66 54q58 4 79 -26t21 -82 q-26 -24 -75 -57t-106 -68t-112 -67t-91 -52q-52 40 -58 73z" />
<glyph unicode="&#xf4;" horiz-adv-x="1544" d="M42 658q0 156 49 282t138 216t212 141t273 55h24q158 0 286 -50q138 -54 237 -147t159 -214t76 -248q5 -42 5 -84q0 -84 -21 -167q-32 -124 -114 -222t-217 -161t-329 -69h-26q-131 0 -258 36q-140 40 -249 124t-177 212t-68 296zM206 634q0 -138 63 -230t158 -148 t204 -79q100 -21 186 -21h15q146 4 248 53t164 126t83 173q12 56 12 113q0 41 -6 82q-15 99 -66 193t-134 165t-198 112q-96 34 -211 34q-22 0 -46 -1q-92 -4 -177 -40t-151 -106t-105 -176t-39 -250zM436 1631q-2 21 16 39q0 16 31 52t70 72t76 63t49 27q52 38 91 43 t72 -14t64 -55t65 -79t76 -88t96 -81q-42 -58 -85 -65t-83 16t-76 65t-63 82t-46 67t-23 21l-202 -196q-34 -24 -62 -22t-46 17t-20 36z" />
<glyph unicode="&#xf5;" horiz-adv-x="1544" d="M42 658q0 156 49 282t138 216t212 141t273 55h24q158 0 286 -50q138 -54 237 -147t159 -214t76 -248q5 -42 5 -84q0 -84 -21 -167q-32 -124 -114 -222t-217 -161t-329 -69h-26q-131 0 -258 36q-140 40 -249 124t-177 212t-68 296zM206 634q0 -138 63 -230t158 -148 t204 -79q100 -21 186 -21h15q146 4 248 53t164 126t83 173q12 56 12 113q0 41 -6 82q-15 99 -66 193t-134 165t-198 112q-96 34 -211 34q-22 0 -46 -1q-92 -4 -177 -40t-151 -106t-105 -176t-39 -250zM368 1654q80 130 144 179t117 48t95 -36t78 -77t69 -74t67 -24 q44 16 65 37t31 44t15 47t17 46q14 14 37 21t44 5t35 -14t10 -38q-10 -96 -65 -166t-132 -93t-166 12t-163 147q-40 8 -66 0t-46 -29t-35 -51t-31 -66q-10 -12 -34 -12t-47 12t-37 33t-2 49z" />
<glyph unicode="&#xf6;" horiz-adv-x="1544" d="M42 658q0 156 49 282t138 216t212 141t273 55h24q158 0 286 -50q138 -54 237 -147t159 -214t76 -248q5 -42 5 -84q0 -84 -21 -167q-32 -124 -114 -222t-217 -161t-329 -69h-26q-131 0 -258 36q-140 40 -249 124t-177 212t-68 296zM206 634q0 -138 63 -230t158 -148 t204 -79q100 -21 186 -21h15q146 4 248 53t164 126t83 173q12 56 12 113q0 41 -6 82q-15 99 -66 193t-134 165t-198 112q-96 34 -211 34q-22 0 -46 -1q-92 -4 -177 -40t-151 -106t-105 -176t-39 -250zM529 1710q1 36 19 64t52 40t88 -6q36 -24 50 -61t8 -73t-30 -66t-66 -38 q-40 -4 -68 17t-41 54t-12 69zM813 1710q1 36 19 64t52 40t88 -6q36 -24 50 -61t8 -73t-30 -66t-66 -38q-40 -4 -68 17t-41 54t-12 69z" />
<glyph unicode="&#xf8;" horiz-adv-x="1544" d="M42 658q0 156 49 282t138 216t212 141t273 55h24q158 0 286 -50q138 -54 237 -147t159 -214t76 -248q5 -42 5 -84q0 -84 -21 -167q-32 -124 -114 -222t-217 -161t-329 -69h-26q-131 0 -258 36q-140 40 -249 124t-177 212t-68 296zM206 634q0 -138 63 -230t158 -148 t204 -79q100 -21 186 -21h15q146 4 248 53t164 126t83 173q12 56 12 113q0 41 -6 82q-15 99 -66 193t-134 165t-198 112q-96 34 -211 34q-22 0 -46 -1q-92 -4 -177 -40t-151 -106t-105 -176t-39 -250zM344 -202q24 48 69 145t101 224t121 273t128 293t120 285t100 247 t66 179t19 82q24 54 58 65t61 -4t39 -49t-4 -70q-80 -202 -139 -351t-107 -271t-91 -231t-95 -230t-119 -267t-159 -342q-4 -16 -30 -24t-56 -7t-55 14t-27 39z" />
<glyph unicode="&#xf9;" horiz-adv-x="1504" d="M44 1170q2 36 25 51t48 14t47 -19t26 -50v-24q0 -177 56 -344q60 -178 169 -316t256 -221t317 -85q110 0 178 47t105 123t47 172q6 56 6 115q0 41 -3 82q-7 101 -26 197t-41 171t-43 120t-31 45q0 46 31 71q16 13 39 13q20 0 44 -10q70 -128 115 -279t60 -302 q7 -67 7 -131q0 -81 -11 -157q-19 -137 -82 -239t-172 -156q-82 -40 -193 -40q-37 0 -78 4q-118 10 -233 61t-218 132t-190 187t-147 230t-90 261q-21 98 -21 197q0 40 3 80zM454 1804q0 52 21 82t79 26q22 -28 66 -54t93 -52t94 -53t70 -57t19 -63t-58 -73q-36 20 -91 52 t-112 67t-106 68t-75 57z" />
<glyph unicode="&#xfa;" horiz-adv-x="1504" d="M44 1170q2 36 25 51t48 14t47 -19t26 -50v-24q0 -177 56 -344q60 -178 169 -316t256 -221t317 -85q110 0 178 47t105 123t47 172q6 56 6 115q0 41 -3 82q-7 101 -26 197t-41 171t-43 120t-31 45q0 46 31 71q16 13 39 13q20 0 44 -10q70 -128 115 -279t60 -302 q7 -67 7 -131q0 -81 -11 -157q-19 -137 -82 -239t-172 -156q-82 -40 -193 -40q-37 0 -78 4q-118 10 -233 61t-218 132t-190 187t-147 230t-90 261q-21 98 -21 197q0 40 3 80zM606 1633q-6 33 19 63t70 57t94 53t93 52t66 54q58 4 79 -26t21 -82q-26 -24 -75 -57t-106 -68 t-112 -67t-91 -52q-52 40 -58 73z" />
<glyph unicode="&#xfb;" horiz-adv-x="1504" d="M44 1170q2 36 25 51t48 14t47 -19t26 -50v-24q0 -177 56 -344q60 -178 169 -316t256 -221t317 -85q110 0 178 47t105 123t47 172q6 56 6 115q0 41 -3 82q-7 101 -26 197t-41 171t-43 120t-31 45q0 46 31 71q16 13 39 13q20 0 44 -10q70 -128 115 -279t60 -302 q7 -67 7 -131q0 -81 -11 -157q-19 -137 -82 -239t-172 -156q-82 -40 -193 -40q-37 0 -78 4q-118 10 -233 61t-218 132t-190 187t-147 230t-90 261q-21 98 -21 197q0 40 3 80zM416 1631q-2 21 16 39q0 16 31 52t70 72t76 63t49 27q52 38 91 43t72 -14t64 -55t65 -79t76 -88 t96 -81q-42 -58 -85 -65t-83 16t-76 65t-63 82t-46 67t-23 21l-202 -196q-34 -24 -62 -22t-46 17t-20 36z" />
<glyph unicode="&#xfc;" horiz-adv-x="1504" d="M44 1170q2 36 25 51t48 14t47 -19t26 -50v-24q0 -177 56 -344q60 -178 169 -316t256 -221t317 -85q110 0 178 47t105 123t47 172q6 56 6 115q0 41 -3 82q-7 101 -26 197t-41 171t-43 120t-31 45q0 46 31 71q16 13 39 13q20 0 44 -10q70 -128 115 -279t60 -302 q7 -67 7 -131q0 -81 -11 -157q-19 -137 -82 -239t-172 -156q-82 -40 -193 -40q-37 0 -78 4q-118 10 -233 61t-218 132t-190 187t-147 230t-90 261q-21 98 -21 197q0 40 3 80zM509 1710q1 36 19 64t52 40t88 -6q36 -24 50 -61t8 -73t-30 -66t-66 -38q-40 -4 -68 17t-41 54 t-12 69zM793 1710q1 36 19 64t52 40t88 -6q36 -24 50 -61t8 -73t-30 -66t-66 -38q-40 -4 -68 17t-41 54t-12 69z" />
<glyph unicode="&#xfd;" horiz-adv-x="1276" d="M52 1122q-2 32 19 53t50 25t58 -10t45 -52q30 -64 81 -158t117 -196t144 -203t162 -182t170 -131t170 -50q0 130 -16 260t-34 259t-32 260q-11 102 -11 206q0 30 1 59q10 36 35 50q18 10 38 10q7 0 15 -1q28 -5 51 -26t29 -57q-1 -29 -1 -59q0 -96 10 -194 q13 -129 32 -275t39 -315t32 -373q-6 -100 -31 -205t-67 -204t-103 -187t-142 -155t-180 -106t-219 -41q-52 0 -105 13t-93 38t-58 64q-8 18 -8 38q0 25 12 55q110 -51 212 -51h11q107 3 198 48t164 122t125 171t78 197q24 96 24 185v14q-166 36 -322 147t-291 264t-241 334 t-168 359zM492 1633q-6 33 19 63t70 57t94 53t93 52t66 54q58 4 79 -26t21 -82q-26 -24 -75 -57t-106 -68t-112 -67t-91 -52q-52 40 -58 73z" />
<glyph unicode="&#xfe;" horiz-adv-x="1436" d="M88 1598q0 108 24 178q50 60 89 62t43 -20q-10 -40 -10 -99t8 -126t20 -137t26 -131t27 -108t21 -69q2 0 15 41t39 101t68 129t104 123t144 83t190 9t200 -72t159 -129t103 -177t30 -216q-12 -98 -57 -186t-112 -162t-151 -133t-174 -97t-181 -54t-171 -6q6 -58 21 -111 t36 -103t46 -96t47 -88q4 -24 -8 -43t-31 -28t-41 -7t-38 18q-34 36 -78 119t-90 197t-93 251t-87 282t-72 291t-49 276t-17 238zM462 755q12 -109 60 -185q116 -38 239 -6t227 108t175 183t80 221t-59 221t-238 183q-92 40 -172 10t-143 -106t-106 -184t-59 -222t-4 -223z " />
<glyph unicode="&#xff;" horiz-adv-x="1276" d="M52 1122q-2 32 19 53t50 25t58 -10t45 -52q30 -64 81 -158t117 -196t144 -203t162 -182t170 -131t170 -50q0 130 -16 260t-34 259t-32 260q-11 102 -11 206q0 30 1 59q10 36 35 50q18 10 38 10q7 0 15 -1q28 -5 51 -26t29 -57q-1 -29 -1 -59q0 -96 10 -194 q13 -129 32 -275t39 -315t32 -373q-6 -100 -31 -205t-67 -204t-103 -187t-142 -155t-180 -106t-219 -41q-52 0 -105 13t-93 38t-58 64q-8 18 -8 38q0 25 12 55q110 -51 212 -51h11q107 3 198 48t164 122t125 171t78 197q24 96 24 185v14q-166 36 -322 147t-291 264t-241 334 t-168 359zM395 1710q1 36 19 64t52 40t88 -6q36 -24 50 -61t8 -73t-30 -66t-66 -38q-40 -4 -68 17t-41 54t-12 69zM679 1710q1 36 19 64t52 40t88 -6q36 -24 50 -61t8 -73t-30 -66t-66 -38q-40 -4 -68 17t-41 54t-12 69z" />
<glyph unicode="&#x131;" horiz-adv-x="530" d="M92 1276q6 26 25 38t48 6t59 -34l262 -1148q8 -34 10 -64t-7 -51t-32 -29t-67 2l-292 1216q-12 38 -6 64z" />
<glyph unicode="&#x152;" horiz-adv-x="3046" d="M46 636q0 122 33 248t91 247t136 231t166 199t182 153t186 93t176 18t152 -73q58 -6 110 -36t98 -80q90 62 198 99t223 55t233 18t227 -13t202 -36t159 -51l-50 -90q-134 10 -278 17t-288 2t-286 -25t-272 -64q10 -14 17 -27t15 -27q38 20 85 8t69 -64v-348q4 -22 10 -42 t10 -40q100 -8 215 -6t230 10t227 20t206 28q18 -2 35 -12t30 -27t18 -37t-1 -40q-228 -52 -461 -73t-467 -25q10 -60 17 -117t11 -109q24 -98 70 -187t110 -158t149 -110t187 -41q128 0 242 60t200 153t137 209t53 230q8 16 24 25t33 5t31 -24t18 -62q4 -176 -52 -306 t-149 -217t-210 -136t-236 -63t-227 3t-184 61q-64 38 -117 95t-99 129q-30 -88 -92 -145t-145 -89t-183 -44t-208 -12q-88 0 -198 16t-223 49t-220 84t-190 122t-134 163t-51 206zM236 642q0 -84 40 -154t106 -126t151 -97t175 -68t178 -41t162 -14q92 0 183 12t161 48 t114 102t44 172q0 138 -18 291t-58 300t-103 278t-153 225q0 -12 9 -24t14 -24t2 -21t-25 -13q-84 86 -171 111t-172 4t-165 -81t-151 -144t-131 -183t-102 -199t-66 -192t-24 -162z" />
<glyph unicode="&#x153;" horiz-adv-x="2312" d="M42 658q0 122 40 233t109 199t162 148t199 83t221 2t227 -95v-6q90 82 204 128t246 44q94 0 184 -30t161 -87t115 -140t44 -187q0 -102 -43 -179t-115 -136t-164 -101t-188 -73t-186 -53t-158 -40q78 -96 172 -148t195 -68t208 -2t211 49t202 86t182 109q34 -76 -38 -171 t-262 -175q-104 -42 -218 -55t-227 2t-220 55t-197 104q-98 -74 -215 -108t-235 -29t-229 49t-197 125t-138 198t-52 269zM206 634q0 -112 45 -198t114 -145t153 -92t164 -36t145 23t97 82v70l-18 30q-30 20 -64 29t-63 21t-48 35t-19 75h25q17 0 34 3t29 12t12 27 q-40 144 -13 283t103 253q-120 86 -243 87t-224 -65t-165 -194t-64 -300zM980 767q-4 -105 30 -241q64 10 148 24t173 36t175 55t154 79t110 109t42 145q0 66 -30 117t-78 87t-107 54t-117 18q-60 -4 -128 -21t-132 -52t-118 -91t-86 -135t-36 -184z" />
<glyph unicode="&#x178;" horiz-adv-x="1406" d="M10 1728q0 52 21 81t79 29q196 -322 445 -557t553 -397q24 104 27 212q1 29 1 59q0 79 -6 158q-8 109 -22 216t-24 211q-4 16 -4 31q0 21 7 42q13 37 38 61t56 31q7 2 14 2q23 0 41 -19q8 -108 15 -177t13 -124t11 -111t9 -137t7 -200t7 -303q30 -10 48 -43t18 -68 t-22 -62t-72 -27q-30 -146 -81 -293t-135 -266t-208 -193t-298 -74q-82 0 -150 31t-117 85t-76 125t-27 153q-3 19 -3 37q0 15 2 31q5 34 19 59t36 35t52 -6q18 -190 85 -281t157 -104q17 -2 34 -2q75 0 156 45q100 56 184 158t138 242t54 296q-68 0 -174 62t-226 159 t-242 216t-219 232t-159 206t-62 139zM461 1998q1 36 19 64t52 40t88 -6q36 -24 50 -61t8 -73t-30 -66t-66 -38q-40 -4 -68 17t-41 54t-12 69zM745 1998q1 36 19 64t52 40t88 -6q36 -24 50 -61t8 -73t-30 -66t-66 -38q-40 -4 -68 17t-41 54t-12 69z" />
<glyph unicode="&#x2c6;" horiz-adv-x="802" d="M50 1631q-2 21 16 39q0 16 31 52t70 72t76 63t49 27q52 38 91 43t72 -14t64 -55t65 -79t76 -88t96 -81q-42 -58 -85 -65t-83 16t-76 65t-63 82t-46 67t-23 21l-202 -196q-34 -24 -62 -22t-46 17t-20 36z" />
<glyph unicode="&#x2da;" horiz-adv-x="632" d="M58 1746q10 60 55 101t101 63t112 25t90 -11q-4 14 -6 27t-2 25q56 0 91 -17t54 -47t25 -72t6 -92q-8 -62 -50 -104t-99 -63t-122 -22t-120 20t-93 62t-42 105zM203 1734q1 -20 33 -34t108 -14q42 8 63 27t29 44t5 54t-11 59q-32 0 -72 -14t-75 -34t-58 -44t-22 -44z" />
<glyph unicode="&#x2dc;" horiz-adv-x="944" d="M50 1654q80 130 144 179t117 48t95 -36t78 -77t69 -74t67 -24q44 16 65 37t31 44t15 47t17 46q14 14 37 21t44 5t35 -14t10 -38q-10 -96 -65 -166t-132 -93t-166 12t-163 147q-40 8 -66 0t-46 -29t-35 -51t-31 -66q-10 -12 -34 -12t-47 12t-37 33t-2 49z" />
<glyph unicode="&#x2000;" horiz-adv-x="1128" />
<glyph unicode="&#x2001;" horiz-adv-x="2258" />
<glyph unicode="&#x2002;" horiz-adv-x="1128" />
<glyph unicode="&#x2003;" horiz-adv-x="2258" />
<glyph unicode="&#x2004;" horiz-adv-x="752" />
<glyph unicode="&#x2005;" horiz-adv-x="564" />
<glyph unicode="&#x2006;" horiz-adv-x="376" />
<glyph unicode="&#x2007;" horiz-adv-x="376" />
<glyph unicode="&#x2008;" horiz-adv-x="282" />
<glyph unicode="&#x2009;" horiz-adv-x="450" />
<glyph unicode="&#x200a;" horiz-adv-x="124" />
<glyph unicode="&#x2010;" horiz-adv-x="1228" d="M136 640q-4 38 18 72t74 44l840 12q36 -16 57 -45t26 -61t-5 -63t-33 -50t-58 -20t-81 25l-726 -14q-50 2 -79 32t-33 68z" />
<glyph unicode="&#x2011;" horiz-adv-x="1228" d="M136 640q-4 38 18 72t74 44l840 12q36 -16 57 -45t26 -61t-5 -63t-33 -50t-58 -20t-81 25l-726 -14q-50 2 -79 32t-33 68z" />
<glyph unicode="&#x2012;" horiz-adv-x="1228" d="M136 640q-4 38 18 72t74 44l840 12q36 -16 57 -45t26 -61t-5 -63t-33 -50t-58 -20t-81 25l-726 -14q-50 2 -79 32t-33 68z" />
<glyph unicode="&#x2013;" horiz-adv-x="1024" d="M204 512v204h616v-204h-616z" />
<glyph unicode="&#x2014;" horiz-adv-x="2048" d="M204 512v204h1640v-204h-1640z" />
<glyph unicode="&#x2018;" horiz-adv-x="334" d="M74 1225q0 43 2 61q4 14 25 22t45 8t45 -7t27 -23q-6 -68 -8 -123t5 -105t24 -98t51 -102q10 -30 -18 -40t-54 -10q-38 0 -64 30t-42 77t-24 104t-11 110t-3 96z" />
<glyph unicode="&#x2019;" horiz-adv-x="334" d="M76 858q32 54 50 102t25 98t5 105t-8 123q6 16 27 23t45 7t45 -8t25 -22q2 -18 2 -61t-3 -96t-11 -110t-24 -104t-42 -77t-64 -30q-26 0 -54 10t-18 40z" />
<glyph unicode="&#x201a;" horiz-adv-x="334" d="M46 8q32 54 50 102t25 98t5 105t-8 123q6 16 27 23t45 7t45 -8t25 -22q2 -18 2 -61t-3 -96t-11 -110t-24 -104t-42 -77t-64 -30q-26 0 -54 10t-18 40z" />
<glyph unicode="&#x201c;" horiz-adv-x="564" d="M74 1215q0 43 2 61q4 14 25 22t45 8t45 -7t27 -23q-6 -68 -8 -123t5 -105t24 -98t51 -102q10 -30 -18 -40t-54 -10q-38 0 -64 30t-42 77t-24 104t-11 110t-3 96zM298 1225q0 43 2 61q4 14 25 22t45 8t45 -7t27 -23q-6 -68 -8 -123t5 -105t24 -98t51 -102q10 -30 -18 -40 t-54 -10q-38 0 -64 30t-42 77t-24 104t-11 110t-3 96z" />
<glyph unicode="&#x201d;" horiz-adv-x="564" d="M76 858q32 54 50 102t25 98t5 105t-8 123q6 16 27 23t45 7t45 -8t25 -22q2 -18 2 -61t-3 -96t-11 -110t-24 -104t-42 -77t-64 -30q-26 0 -54 10t-18 40zM300 848q32 54 50 102t25 98t5 105t-8 123q6 16 27 23t45 7t45 -8t25 -22q2 -18 2 -61t-3 -96t-11 -110t-24 -104 t-42 -77t-64 -30q-26 0 -54 10t-18 40z" />
<glyph unicode="&#x201e;" horiz-adv-x="564" d="M76 858q32 54 50 102t25 98t5 105t-8 123q6 16 27 23t45 7t45 -8t25 -22q2 -18 2 -61t-3 -96t-11 -110t-24 -104t-42 -77t-64 -30q-26 0 -54 10t-18 40zM300 848q32 54 50 102t25 98t5 105t-8 123q6 16 27 23t45 7t45 -8t25 -22q2 -18 2 -61t-3 -96t-11 -110t-24 -104 t-42 -77t-64 -30q-26 0 -54 10t-18 40z" />
<glyph unicode="&#x2026;" horiz-adv-x="852" d="M47 140q1 36 19 64t52 40t88 -6q36 -24 50 -61t8 -73t-30 -66t-66 -38q-40 -4 -68 17t-41 54t-12 69zM331 140q1 36 19 64t52 40t88 -6q36 -24 50 -61t8 -73t-30 -66t-66 -38q-40 -4 -68 17t-41 54t-12 69zM615 140q1 36 19 64t52 40t88 -6q36 -24 50 -61t8 -73t-30 -66 t-66 -38q-40 -4 -68 17t-41 54t-12 69z" />
<glyph unicode="&#x202f;" horiz-adv-x="450" />
<glyph unicode="&#x2039;" horiz-adv-x="1296" d="M174 675q10 67 74 131q96 92 158 148t103 98t72 78t67 89t86 132t130 205q28 2 55 -7t35 -39t-10 -89t-81 -159t-179 -248t-304 -358q54 -86 152 -162t215 -130t242 -80t235 -12q32 -10 36 -37t-13 -58t-51 -58t-76 -39q-120 0 -245 45t-246 114t-231 150t-198 155 q-36 64 -26 131z" />
<glyph unicode="&#x203a;" horiz-adv-x="1364" d="M76 263q4 27 36 37q110 -14 235 12t242 80t215 130t152 162q-188 210 -304 358t-179 249t-81 159t-10 88t35 38t55 8q80 -126 130 -205t86 -132t67 -89t72 -78t102 -98t159 -148q64 -64 74 -131t-26 -131q-88 -74 -198 -155t-231 -150t-246 -114t-245 -45q-42 12 -76 39 t-51 58t-13 58z" />
<glyph unicode="&#x2044;" horiz-adv-x="960" d="M22 46q24 48 69 145t101 224t121 273t128 293t120 285t100 247t66 179t19 82q24 54 58 65t61 -4t39 -49t-4 -70q-80 -202 -139 -351t-107 -271t-91 -231t-95 -230t-119 -267t-159 -342q-4 -16 -30 -24t-56 -7t-55 14t-27 39z" />
<glyph unicode="&#x205f;" horiz-adv-x="564" />
<glyph unicode="&#x20ac;" horiz-adv-x="2036" d="M60 1001q-4 23 18 46t58 38t64 7q16 2 56 5t84 4t83 3t57 2q24 94 86 196t149 196t191 170t213 117t216 38t201 -67q20 -12 22 -29t-6 -32t-23 -23t-33 0q0 -2 -2 -2h-6q-88 38 -179 32t-178 -44t-166 -100t-144 -136t-112 -154t-69 -152q14 -6 83 -5t158 1t181 -4 t152 -17t71 -39t-61 -72l-628 -16q0 -6 -5 -46t-9 -88t-5 -92t7 -60q28 -6 110 -6t187 5t219 13t206 17t148 15t46 10q42 -42 18 -74t-94 -56t-173 -38t-217 -20t-228 -3t-206 15q28 -96 95 -170t158 -124t198 -77t215 -31t211 16t184 64t134 111t61 159q60 30 87 12t29 -98 q-30 -124 -106 -209t-181 -135t-229 -67t-253 -3t-252 57t-225 112t-174 162t-96 209q-64 0 -126 -7t-130 -11q-28 0 -50 27t-22 51q0 28 44 38t98 13t100 6t50 17q-6 80 3 149t9 149q-84 0 -159 -2t-157 -2q-52 6 -56 29z" />
<glyph unicode="&#x2122;" horiz-adv-x="3392" d="M1438 1720q4 42 43 61q32 16 61 16q6 0 12 -1q64 -6 126 -63t126 -140t135 -181t153 -183t180 -145t216 -70q132 28 201 110t102 191t40 232t15 235q14 34 47 50q28 13 58 13h12q37 -3 72 -27t53 -70q52 -454 124 -904t148 -918q-24 -2 -44 -2q-51 0 -81 11 q-41 15 -60 51t-26 91t-19 125l-162 1112q-18 -76 -56 -161t-96 -159t-134 -122t-172 -48q-142 12 -258 73t-215 150t-187 198t-174 217q2 -78 24 -191t53 -242t65 -265t61 -262t43 -234q11 -75 11 -132q0 -25 -2 -47q-7 -71 -40 -97q-14 -11 -35 -11q-29 0 -70 21 q-26 84 -54 206t-56 266t-57 304t-59 323t-61 321t-63 298zM12 1636q24 38 90 65t158 45t203 29t226 18t226 11t204 10t159 13t92 19q36 -12 41 -38q1 -6 1 -13q0 -20 -11 -39q-15 -26 -42 -48t-53 -24l-536 -26l286 -1624q-24 -66 -52 -79q-17 -8 -32 -8q-10 0 -20 4 q-24 9 -39 26t-15 13q-58 308 -102 542t-76 409t-55 297t-38 203t-23 127t-12 72l-542 -68q-16 10 -28 28t-10 36z" />
<glyph unicode="&#xe000;" horiz-adv-x="1540" d="M0 1540h1540v-1540h-1540v1540z" />
<glyph unicode="&#xfb01;" horiz-adv-x="2058" d="M1546 1582q0 26 22 41t49 16h3q25 0 47 -14q23 -15 25 -47q-6 -48 -31 -62t-52 -7t-47 29t-16 44zM1618 1276q8 26 30 38q15 8 33 8q9 0 20 -2q31 -6 61 -34l262 -1148q8 -34 8 -64t-11 -51t-37 -29q-12 -4 -27 -4q-19 0 -43 6l-292 1216q-7 23 -7 41q0 13 3 23zM-38 922 q10 32 47 46t89 17q26 2 54 1.5t59 -1.5q61 -3 118 -6q43 -2 80 -2h24q47 1 71 15q-104 170 -119 308q-4 33 -4 64q0 98 37 174q48 100 148 162t229 82q57 9 118 9q75 0 155 -14q144 -25 280 -97q38 -22 59 -51q23 -32 23 -67q0 -27 -14 -51q-16 -27 -52 -43 q-110 88 -230 134t-227 48h-10q-101 0 -181 -40q-84 -42 -123 -129q-28 -62 -28 -146q0 -34 5 -72q16 -131 112 -309q194 2 306 3t174 1t88 -4t46 -14q1 -15 1 -28q0 -59 -22 -79q-27 -25 -92 -25t-168 10q-57 6 -127 6q-56 0 -120 -4q20 -56 52 -128t67 -152t72 -161 t69 -155t55 -135t31 -99q-31 -20 -60 -20q-23 0 -44 13q-48 29 -91 100t-84 170t-80 202t-81 200t-86 161q-34 5 -83 5h-17q-60 -1 -127 -3t-135 -2t-123 10t-94 32t-47 64z" />
<glyph unicode="&#xfb02;" horiz-adv-x="2002" d="M1590 1728q10 28 30 47t44 23q6 1 11 1q18 0 35 -10q22 -13 38 -47q-2 -122 -6 -275t-4 -314t7 -320t29 -294t61 -237t103 -148q32 -24 41 -55q6 -20 6 -38q0 -10 -2 -20q-5 -27 -22 -45q-14 -15 -30 -15q-4 0 -7 1q-112 62 -175 165t-93 238t-37 296t-7 334t-1 354 t-21 359zM-38 922q10 32 47 46t89 17q26 2 54 1.5t59 -1.5q61 -3 118 -6q43 -2 80 -2h24q47 1 71 15q-104 170 -119 308q-4 33 -4 64q0 98 37 174q48 100 148 162t229 82q57 9 118 9q75 0 155 -14q144 -25 280 -97q38 -22 59 -51q23 -32 23 -67q0 -27 -14 -51 q-16 -27 -52 -43q-110 88 -230 134t-227 48h-10q-101 0 -181 -40q-84 -42 -123 -129q-28 -62 -28 -146q0 -34 5 -72q16 -131 112 -309q194 2 306 3t174 1t88 -4t46 -14q1 -15 1 -28q0 -59 -22 -79q-27 -25 -92 -25t-168 10q-57 6 -127 6q-56 0 -120 -4q20 -56 52 -128 t67 -152t72 -161t69 -155t55 -135t31 -99q-31 -20 -60 -20q-23 0 -44 13q-48 29 -91 100t-84 170t-80 202t-81 200t-86 161q-34 5 -83 5h-17q-60 -1 -127 -3t-135 -2t-123 10t-94 32t-47 64z" />
<glyph unicode="&#xfb03;" horiz-adv-x="3582" d="M3070 1582q0 26 22 41t49 16h3q25 0 47 -14q23 -15 25 -47q-6 -48 -31 -62t-52 -7t-47 29t-16 44zM3142 1276q8 26 30 38q15 8 33 8q9 0 20 -2q31 -6 61 -34l262 -1148q8 -34 8 -64t-11 -51t-37 -29q-12 -4 -27 -4q-19 0 -43 6l-292 1216q-7 23 -7 41q0 13 3 23z M1486 922q10 32 47 46t89 17q26 2 54 1.5t59 -1.5q61 -3 118 -6q43 -2 80 -2h24q47 1 71 15q-104 170 -119 308q-4 33 -4 64q0 98 37 174q48 100 148 162t229 82q57 9 118 9q75 0 155 -14q144 -25 280 -97q38 -22 59 -51q23 -32 23 -67q0 -27 -14 -51q-16 -27 -52 -43 q-110 88 -230 134t-227 48h-10q-101 0 -181 -40q-84 -42 -123 -129q-28 -62 -28 -146q0 -34 5 -72q16 -131 112 -309q194 2 306 3t174 1t88 -4t46 -14q1 -15 1 -28q0 -59 -22 -79q-27 -25 -92 -25t-168 10q-57 6 -127 6q-56 0 -120 -4q20 -56 52 -128t67 -152t72 -161 t69 -155t55 -135t31 -99q-31 -20 -60 -20q-23 0 -44 13q-48 29 -91 100t-84 170t-80 202t-81 200t-86 161q-34 5 -83 5h-17q-60 -1 -127 -3t-135 -2t-123 10t-94 32t-47 64zM-38 922q10 32 47 46t89 17q26 2 54 1.5t59 -1.5q61 -3 118 -6q43 -2 80 -2h24q47 1 71 15 q-104 170 -119 308q-4 33 -4 64q0 98 37 174q48 100 148 162t229 82q57 9 118 9q75 0 155 -14q144 -25 280 -97q38 -22 59 -51q23 -32 23 -67q0 -27 -14 -51q-16 -27 -52 -43q-110 88 -230 134t-227 48h-10q-101 0 -181 -40q-84 -42 -123 -129q-28 -62 -28 -146q0 -34 5 -72 q16 -131 112 -309q194 2 306 3t174 1t88 -4t46 -14q1 -15 1 -28q0 -59 -22 -79q-27 -25 -92 -25t-168 10q-57 6 -127 6q-56 0 -120 -4q20 -56 52 -128t67 -152t72 -161t69 -155t55 -135t31 -99q-31 -20 -60 -20q-23 0 -44 13q-48 29 -91 100t-84 170t-80 202t-81 200 t-86 161q-34 5 -83 5h-17q-60 -1 -127 -3t-135 -2t-123 10t-94 32t-47 64z" />
<glyph unicode="&#xfb04;" horiz-adv-x="3526" d="M3114 1728q10 28 30 47t44 23q6 1 11 1q18 0 35 -10q22 -13 38 -47q-2 -122 -6 -275t-4 -314t7 -320t29 -294t61 -237t103 -148q32 -24 41 -55q6 -20 6 -38q0 -10 -2 -20q-5 -27 -22 -45q-14 -15 -30 -15q-4 0 -7 1q-112 62 -175 165t-93 238t-37 296t-7 334t-1 354 t-21 359zM1486 922q10 32 47 46t89 17q26 2 54 1.5t59 -1.5q61 -3 118 -6q43 -2 80 -2h24q47 1 71 15q-104 170 -119 308q-4 33 -4 64q0 98 37 174q48 100 148 162t229 82q57 9 118 9q75 0 155 -14q144 -25 280 -97q38 -22 59 -51q23 -32 23 -67q0 -27 -14 -51 q-16 -27 -52 -43q-110 88 -230 134t-227 48h-10q-101 0 -181 -40q-84 -42 -123 -129q-28 -62 -28 -146q0 -34 5 -72q16 -131 112 -309q194 2 306 3t174 1t88 -4t46 -14q1 -15 1 -28q0 -59 -22 -79q-27 -25 -92 -25t-168 10q-57 6 -127 6q-56 0 -120 -4q20 -56 52 -128 t67 -152t72 -161t69 -155t55 -135t31 -99q-31 -20 -60 -20q-23 0 -44 13q-48 29 -91 100t-84 170t-80 202t-81 200t-86 161q-34 5 -83 5h-17q-60 -1 -127 -3t-135 -2t-123 10t-94 32t-47 64zM-38 922q10 32 47 46t89 17q26 2 54 1.5t59 -1.5q61 -3 118 -6q43 -2 80 -2h24 q47 1 71 15q-104 170 -119 308q-4 33 -4 64q0 98 37 174q48 100 148 162t229 82q57 9 118 9q75 0 155 -14q144 -25 280 -97q38 -22 59 -51q23 -32 23 -67q0 -27 -14 -51q-16 -27 -52 -43q-110 88 -230 134t-227 48h-10q-101 0 -181 -40q-84 -42 -123 -129q-28 -62 -28 -146 q0 -34 5 -72q16 -131 112 -309q194 2 306 3t174 1t88 -4t46 -14q1 -15 1 -28q0 -59 -22 -79q-27 -25 -92 -25t-168 10q-57 6 -127 6q-56 0 -120 -4q20 -56 52 -128t67 -152t72 -161t69 -155t55 -135t31 -99q-31 -20 -60 -20q-23 0 -44 13q-48 29 -91 100t-84 170t-80 202 t-81 200t-86 161q-34 5 -83 5h-17q-60 -1 -127 -3t-135 -2t-123 10t-94 32t-47 64z" />
</font>
</defs>
</svg>
